[喜剧] 艾琳娜和她的男人们 Elena.and.Her.Men.1956.FRENCH.BluRay.x264.DTS-FGT 7.43GB

[复制链接]
蓝鸟VIP会员 永久VIP 发表于 2019-8-21 23:15:40 | 显示全部楼层 |阅读模式 打印 上一主题 下一主题

马上注册,轻松下载,海量资源,让你轻松玩转社区。

您需要 登录 才可以下载或查看,没有帐号?立即注册

x

?
◎译  名 艾琳娜和她的男人们/多情公主/历尽沧桑一美人
◎片  名 Elena et les hommes
◎年  代 1956
◎国  家 法国/意大利
◎类  别 喜剧/剧情/爱情
◎语  言 法语
◎上映日期 1956-09-12
◎IMDb评分  6.5/10 from 1,014 users
◎IMDb链接  http://www.imdb.com/title/tt0049177/
◎豆瓣评分 6.4/10 from 265 users
◎豆瓣链接 http://movie.douban.com/subject/1303563/
◎片  长 France: 95 分钟/Germany: 96 分钟/USA: 98 分钟
◎导  演 让·雷诺阿 Jean Renoir
◎主  演 英格丽·褒曼 Ingrid Bergman
      梅尔·弗尔 Mel Ferrer
      让·马莱 Jean Marais
◎简  介
  美丽的埃拉纳是波兰王子的妻子,王子喜欢捣鼓炸药,一次在制造炸药时不幸罹难,于是,埃拉纳来到了花都巴黎寻找自己的爱情,她周旋于上流社会里寻找着自己的发展机遇,但是那些迂腐的男人提不起她的兴趣,因为她们已经产生了财政危机,为了摆脱这些,姑妈希望她攀上富商皆大欢喜,于是橡胶大王成为了下一个目标,在法国国庆日上她邂逅了伯爵亨利,也第一次听到改革派罗兰将军的名字,通过亨利她认识了罗兰将军,并在亨利的带领下去参观了将军的军事演习。可是当局害怕罗兰将军的民众号召力于是借故把他打发到一个边远地区。于是他的追随者接踵而至,公主周围的男人们也全部来到了小镇,原本平静的象征热闹了,警察监视着将军害怕他脱逃制造起义,民心所向的将军在埃拉纳等人的帮助乔装打扮下终于离开了小镇,而公主在太多变故之后终于明白自己的心上人是谁,她和伯爵亨利为了掩护将军出走的亲热变成了假戏真做,有情人终于因为爱的热忱聚首到一起。
Video
ID                                       : 1
Format                                   : AVC
Format/Info                              : Advanced Video Codec
Format profile                           : [email protected]
Format settings, CABAC                   : Yes
Format settings, ReFrames                : 4 frames
Codec ID                                 : V_MPEG4/ISO/AVC
Duration                                 : 1h 38mn
Bit rate                                 : 9 300 Kbps
Width                                    : 1 440 pixels
Height                                   : 1 080 pixels
Display aspect ratio                     : 4:3
Frame rate mode                          : Constant
Frame rate                               : 24.000 fps
Color space                              : YUV
Chroma subsampling                       : 4:2:0
Bit depth                                : 8 bits
Scan type                                : Progressive
Bits/(Pixel*Frame)                       : 0.249
Stream size                              : 6.24 GiB (84%)
Writing library                          : x264 core 125 r2208 d9d2288
Encoding settings                        : cabac=1 / ref=4 / deblock=1:-3:-3 / analyse=0x3:0x133 / me=umh / subme=11 / psy=1 / psy_rd=1.00:0.00 / mixed_ref=1 / me_range=32 / chroma_me=1 / trellis=2 / 8x8dct=1 / cqm=0 / deadzone=21,11 / fast_pskip=0 / chroma_qp_offset=-2 / threads=3 / lookahead_threads=1 / sliced_threads=0 / nr=0 / decimate=0 / interlaced=0 / bluray_compat=0 / constrained_intra=0 / bframes=8 / b_pyramid=2 / b_adapt=2 / b_bias=0 / direct=3 / weightb=1 / open_gop=0 / weightp=2 / keyint=240 / keyint_min=23 / scenecut=40 / intra_refresh=0 / rc=2pass / mbtree=0 / bitrate=9300 / ratetol=1.0 / qcomp=0.60 / qpmin=10 / qpmax=51 / qpstep=4 / cplxblur=20.0 / qblur=0.5 / ip_ratio=1.40 / pb_ratio=1.30 / aq=1:1.00
Language                                 : English
Default                                  : No
Forced                                   : No
Audio
ID                                       : 2
Format                                   : DTS
Format/Info                              : Digital Theater Systems
Mode                                     : 16
Format settings, Endianness              : Big
Codec ID                                 : A_DTS
Duration                                 : 1h 38mn
Bit rate mode                            : Constant
Bit rate                                 : 1 509 Kbps
Channel(s)                               : 2 channels
Channel positions                        : Front: L R
Sampling rate                            : 48.0 KHz
Bit depth                                : 16 bits
Compression mode                         : Lossy
Stream size                              : 1.04 GiB (14%)
Language                                 : French
Default                                  : Yes
Forced                                   : No
Text
ID                                       : 3
Format                                   : UTF-8
Codec ID                                 : S_TEXT/UTF8
Codec ID/Info                            : UTF-8 Plain Text
Language                                 : English
Default                                  : Yes
Forced                                   : Yes
Menu
00:00:00.000                             : en:00:00:00.000
00:08:48.958                             : en:00:08:48.958
00:17:43.917                             : en:00:17:43.917
00:24:57.417                             : en:00:24:57.417
00:32:37.458                             : en:00:32:37.458
00:44:59.750                             : en:00:44:59.750
00:54:40.958                             : en:00:54:40.958
01:01:01.167                             : en:01:01:01.167
01:07:00.583                             : en:01:07:00.583
01:13:54.125                             : en:01:13:54.125
01:23:01.000                             : en:01:23:01.000
01:31:26.000                             : en:01:31:26.000

精彩剧照


                                       

蓝光高清网提示您 点击下方附件名称 马上开始下载



温馨提示:
本站资源优先使用迅雷下载,迅雷会员下载,速度基本可以跑满宽带
如果遇到无资源或者版权问题无法下载,推荐使用115网盘离线下载(点击查看115网盘离线下载教程


  • 该资源需要您回复以后 刷新网页进行下载操作

  • 1、Elena.and.Her.Men.1956.FRENCH.BluRay.x264.DTS-FGT.torrent 75KB 已下载 0 次

加入蓝光高清网VIP会员  无限制下载本站所有资源---点此加入

资源下载、资源播放、字幕使用、无法下载等常见问题---点这里

回复

使用道具 举报

懒得打字嘛,点击右侧快捷回复
高级模式
B Color Image Link Quote Code Smilies 上传

本版积分规则

关注0

粉丝0

帖子66311

发布主题
最新电影 论坛
广告位
联系我们
点击这里联系客服

服务时间:
周一到周日8:00-23:30

  • 打开微信扫一扫
    关注公众号

  • 手机QQ扫一扫
    添加客服

Archiver手机版蓝光高清网 ( 渝ICP备18006373号-2 )|网站地图

Powered by Discuz! X3.4  © 2001-2013 Comsenz Inc.