[剧情] 波特小姐/波特小姐:比得兔的故事 Miss.Potter.2006.1080p.BluRay.x264.DTS-FGT 7.84GB

[复制链接]
蓝鸟VIP会员 永久VIP 发表于 2019-8-21 23:16:31 | 显示全部楼层 |阅读模式 打印 上一主题 下一主题

马上注册,轻松下载,海量资源,让你轻松玩转社区。

您需要 登录 才可以下载或查看,没有帐号?立即注册

x


◎译  名 波特小姐/波特小姐:比得兔的故事(港)/波特小姐:比得兔的诞生(台)/波特女士
◎片  名 Miss Potter
◎年  代 2006
◎国  家 英国/美国/英国属地曼岛
◎类  别 剧情/传记/奇幻
◎语  言 英语
◎上映日期 2007-01-05(英国)
◎IMDb评分  7.0/10 from 22,274 users
◎IMDb链接  http://www.imdb.com/title/tt0482546/
◎豆瓣评分 7.7/10 from 10,583 users
◎豆瓣链接 http://movie.douban.com/subject/1900121/
◎片  长 92分钟
◎导  演 克里斯·努安 Chris Noonan
◎主  演 蕾妮·泽尔维格 Renée Zellweger
      伊万·麦克格雷格 Ewan McGregor
      艾米丽·沃森 Emily Watson
      芭芭拉·弗林 Barbara Flynn
      比尔·帕特森 Bill Paterson
      Matyelok Gibbs
      劳埃德·欧文 Lloyd Owen
◎简  介
  比阿特丽克斯·波特女士所写的儿童小说影响了一代又一代的孩子们,他们一直为波特女士作品中的角色和故事情节所痴迷不已。但是,对于她个人的生活,波特女士却一直谨慎地保持着低调,不肯轻易地让外人了解她的私生活。然而,如今,奥斯卡最佳女主角奖获得者蕾妮·齐薇格将要把波特女士生活中的秘密,在影片《波特女士》中展现给观众。该片由克里斯·努安执导,这是他在1995年拍摄了广受好评的《小猪巴比》之后第一次执导电影。
  影片的时间背景是维多利亚女王与爱德华七世时代末期的英格兰,一个酷热的夏天。此时,波特女士已经逐步地显示出了她在写作方面迥异的天赋,许多人都认为她有着当一名艺术家的潜质。当她的第一部作品《彼得兔的故事》正式出版之后,波特女士成为了倍受欢迎的著名作家。事业成功之后,爱情也向波特女士走来。她的第一段爱情便是同由伊万·麦克格雷格饰演的出版商诺曼·韦恩之间的,他们之间的恋情,以及诺曼·韦恩于1905年7月的求婚,永远地改变了比阿特丽克斯的生活。
  对于这段恋情,波特女士却无法向公众宣布,甚至不能谈及有关的事情。在伦敦的上流社会中,波特的父母坚持她应该找一个同她的身份地位都相配的人做她的终生伴侣,并且他们认为波特同韦恩在一起就是一个错误。他们认为韦恩只不过是个做小买卖的,他们要求波特重新考虑同韦恩在一起的这个决定。最终,比阿特丽克斯终于屈服了,放弃了这段感情,在家人的劝说下,她离开了伦敦,离开了她的未婚夫。在这段时间中,波特经历了痛苦和孤独,变得十分的沉寂。但是,经过了长时间的精神磨练,彻底的改变了波特的观念,她又以新的态度来勇敢地面对生活。她搬到了坎布里亚郡的湖区,这里拥有险峻的山峰和16个波光粼粼的湖泊,举世无双的美景激发了波特的灵感,她在这里生活、创作,一直到1930年。波特创作了多部优秀的童话作品,是一个超越时代的女性。即便是波特成为了世界上最成功的儿童作品创作者和富有的农场主,她也从来都没有忘记过她的第一段爱情。
Video
ID                                       : 1
Format                                   : AVC
Format/Info                              : Advanced Video Codec
Format profile                           : [email protected]
Format settings, CABAC                   : Yes
Format settings, ReFrames                : 4 frames
Codec ID                                 : V_MPEG4/ISO/AVC
Duration                                 : 1h 28mn
Bit rate                                 : 10.9 Mbps
Width                                    : 1 920 pixels
Height                                   : 798 pixels
Display aspect ratio                     : 2.40:1
Frame rate mode                          : Constant
Frame rate                               : 25.000 fps
Color space                              : YUV
Chroma subsampling                       : 4:2:0
Bit depth                                : 8 bits
Scan type                                : Progressive
Bits/(Pixel*Frame)                       : 0.284
Stream size                              : 6.75 GiB (86%)
Writing library                          : x264 core 142 r2431 ac76440
Encoding settings                        : cabac=1 / ref=4 / deblock=1:-1:-1 / analyse=0x3:0x113 / me=umh / subme=9 / psy=1 / psy_rd=1.00:0.15 / mixed_ref=1 / me_range=32 / chroma_me=1 / trellis=2 / 8x8dct=1 / cqm=0 / deadzone=21,11 / fast_pskip=1 / chroma_qp_offset=-3 / threads=6 / lookahead_threads=1 / sliced_threads=0 / nr=0 / decimate=1 / interlaced=0 / bluray_compat=0 / constrained_intra=0 / bframes=8 / b_pyramid=2 / b_adapt=2 / b_bias=0 / direct=3 / weightb=1 / open_gop=0 / weightp=2 / keyint=240 / keyint_min=24 / scenecut=40 / intra_refresh=0 / rc_lookahead=40 / rc=crf / mbtree=0 / crf=17.8 / qcomp=0.60 / qpmin=0 / qpmax=69 / qpstep=4 / vbv_maxrate=40000 / vbv_bufsize=50000 / crf_max=0.0 / nal_hrd=none / filler=0 / ip_ratio=1.40 / pb_ratio=1.30 / aq=1:1.00
Language                                 : English
Default                                  : Yes
Forced                                   : No
Audio
ID                                       : 2
Format                                   : DTS
Format/Info                              : Digital Theater Systems
Mode                                     : 16
Format settings, Endianness              : Big
Codec ID                                 : A_DTS
Duration                                 : 1h 28mn
Bit rate mode                            : Constant
Bit rate                                 : 1 509 Kbps
Channel(s)                               : 6 channels
Channel positions                        : Front: L C R, Side: L R, LFE
Sampling rate                            : 48.0 KHz
Bit depth                                : 16 bits
Compression mode                         : Lossy
Stream size                              : 959 MiB (12%)
Language                                 : English
Default                                  : Yes
Forced                                   : No
Text
ID                                       : 3
Format                                   : UTF-8
Codec ID                                 : S_TEXT/UTF8
Codec ID/Info                            : UTF-8 Plain Text
Default                                  : No
Forced                                   : No
Menu
00:00:00.000                             : :Chapter 01
00:08:05.359                             : :Chapter 02
00:16:06.840                             : :Chapter 03
00:22:07.680                             : :Chapter 04
00:27:05.440                             : :Chapter 05
00:35:26.000                             : :Chapter 06
00:38:31.639                             : :Chapter 07
00:51:54.039                             : :Chapter 08
00:55:57.679                             : :Chapter 09
01:01:29.559                             : :Chapter 10
01:12:16.359                             : :Chapter 11
01:18:03.479                             : :Chapter 12

精彩剧照


                                       

蓝光高清网提示您 点击下方附件名称 马上开始下载



温馨提示:
本站资源优先使用迅雷下载,迅雷会员下载,速度基本可以跑满宽带
如果遇到无资源或者版权问题无法下载,推荐使用115网盘离线下载(点击查看115网盘离线下载教程


  • 该资源需要您回复以后 刷新网页进行下载操作

  • 1、Miss.Potter.2006.1080p.BluRay.x264.DTS-FGT.torrent 79KB 已下载 0 次

加入蓝光高清网VIP会员  无限制下载本站所有资源---点此加入

资源下载、资源播放、字幕使用、无法下载等常见问题---点这里

回复

使用道具 举报

懒得打字嘛,点击右侧快捷回复
高级模式
B Color Image Link Quote Code Smilies 上传

本版积分规则

关注0

粉丝0

帖子69429

发布主题
最新电影 论坛
广告位
联系我们
点击这里联系客服

服务时间:
周一到周日8:00-23:30

  • 打开微信扫一扫
    关注公众号

  • 手机QQ扫一扫
    添加客服

Archiver手机版蓝光高清网 ( 渝ICP备18006373号-2 )|网站地图

Powered by Discuz! X3.4  © 2001-2013 Comsenz Inc.