开通会员
全站资源畅享下载
4k原盘抢先下载
免高清币下载
会员用户组特权
开通会员
上传
收藏
首页
开启左侧

[4K高清美剧] 伦敦黑帮 第一季4k Gangs.of.London.S01.HDR.2160p.美剧下载—51.74 GB

[复制链接]
蓝鸟 发表于 4 天前 | 显示全部楼层 |阅读模式 打印 上一主题 下一主题

伦敦黑帮(上映日期:2020)4K(3840x2160)

简介[突袭]系列导演加雷斯·埃文斯转战小荧屏,将执导新剧《伦敦黑帮》(Gangs of London,暂译),同时他也将担任该剧联合编剧。新剧由HBO旗下Cinemax频道、天空电视网联合出品。故事背景设置在现代伦敦,一个犯罪团伙头目之死引发出了伦敦不同国籍、不同派系之间的帮派斗争。该剧将于2019年播出
导演科林·哈迪 / 泽维尔·吉恩斯 / 加雷斯·埃文斯
主演乔·科尔 / 索佩·迪瑞苏 / 科尔姆·米尼 / 卢西安·姆瑟马蒂 / 米歇尔·费尔利
类型剧情 
地区美国
声道5.1声道
编码其他DD
状态第一季(完结)
评分豆瓣8.1分
 

加入蓝光高清网,轻松下载最新4k资源

您需要 登录 才可以下载或查看,没有帐号?立即注册

x
伦敦黑帮 第一季4k Gangs.of.London.S01.HDR.2160p.WEB.h265.美剧信息
Video
ID : 1
Format : HEVC
Format/Info : High Efficiency Video Coding
Format profile : Main 10@L5@High
HDR format : SMPTE ST 2086, HDR10 compatible
Codec ID : V_MPEGH/ISO/HEVC
Duration : 58 min 41 s
Bit rate : 13.3 Mb/s
Width : 3 840 pixels
Height : 2 160 pixels
Display aspect ratio : 16:9
Frame rate mode : Constant
Frame rate : 25.000 FPS
Color space : YUV
Chroma subsampling : 4:2:0
Bit depth : 10 bits
Bits/(Pixel*Frame) : 0.064
Stream size : 5.46 GiB (97%)
Language : English
Default : Yes
Forced : No
Color range : Limited
Color primaries : BT.2020
Transfer characteristics : PQ
Matrix coefficients : BT.2020 non-constant
Mastering display color primaries : R: x=0.150000 y=0.060000, G: x=0.680000 y=0.320000, B: x=0.320000 y=0.265000, White point: x=0.312680 y=0.329000
Mastering display luminance : min: 0.0050 cd/m2, max: 1000 cd/m2
Maximum Content Light Level : 999 cd/m2
Maximum Frame-Average Light Level : 265 cd/m2


Audio
ID : 2
Format : AAC LC
Format/Info : Advanced Audio Codec Low Complexity
Codec ID : A_AAC-2
Duration : 58 min 41 s
Bit rate : 445 kb/s
Channel(s) : 6 channels
Channel layout : C L R Ls Rs LFE
Sampling rate : 48.0 kHz
Frame rate : 46.875 FPS (1024 SPF)
Compression mode : Lossy
Stream size : 187 MiB (3%)
Language : English
Default : Yes
Forced : No


Text
ID : 3
Format : UTF-8
Codec ID : S_TEXT/UTF8
Codec ID/Info : UTF-8 Plain Text
Duration : 58 min 11 s
Bit rate : 58 b/s
Count of elements : 825
Stream size : 24.8 KiB (0%)
Title : English [SDH]
Language : English
Default : No
Forced : No


蓝光高清网提示您  点击下方附件名称  马上开始下载


伦敦黑帮 第一季4k Gangs.of.London.S01.HDR.2160p.WEB.h265.美剧下载


伦敦黑帮 第一季4k Gangs.of.London.S01.HDR.2160p.WEB.h265.【51.74 GB】
伦敦黑帮 第一季4k Gangs.of.London.S01.HDR.2160p.WEB.h265-SCONES[rartv].torrent (文件大小:130.64 KB)


加入蓝光高清网VIP会员  无限制下载本站所有资源---点这里

资源下载、资源播放、字幕使用、无法下载等常见问题---点这里
回复

使用道具 举报

 

精彩评论6

正序浏览
gdlmxia 发表于 4 天前 | 显示全部楼层
 
太好啦&萬分感謝版主的無私發佈分享%
回复

使用道具 举报

 
pscel 发表于 3 天前 | 显示全部楼层
 

感谢蓝光高清网提供的优质资源,希望网站越办越好。
回复

使用道具 举报

 
feiyue 发表于 3 天前 | 显示全部楼层
 

天天访问蓝光高清网  天天打卡  习惯了
回复

使用道具 举报

 
hcezyyl 发表于 3 天前 | 显示全部楼层
 
嘻嘻嘻,谢谢哈
回复

使用道具 举报

 
tybbcdf2021 发表于 前天 09:57 来自手机 | 显示全部楼层
 
感谢分享,楼主加油。
回复

使用道具 举报

 
jscstww 发表于 前天 21:45 | 显示全部楼层
 

非常感谢蓝光高清网给大家的享乐4k,祝蓝光高清网越办越好!
回复

使用道具 举报

 
您需要登录后才可以回帖 登录 | 立即注册

本版积分规则

0关注

2粉丝

93698帖子

  • 版块推荐
  • 百宝箱

电影推荐

更多+

热门电影

更多+

下载APP 签到更便捷

官方微信

手机APP

蓝光高清网

专注4k电影、4k视频、VR视频、高清电影、蓝光原盘资源

本站内容部分由用户自主分享和转载自互联网,转载目的在于传递更多信息,并不代表本网赞同其观点和对其真实性负责。

如有侵权、违反国家法律政策行为,请联系我们,我们会第一时间及时清除和处理!

举报反馈邮箱:lanniao@1080pro.net

Copyright   ©2019-2020  蓝光高清网    |网站地图