[恐怖] 梦幻杀人档案 Lord.of.Illusions.1995.DC.1080p.BluRay.x264.DTS-FGT 12.17GB

[复制链接]
蓝鸟VIP会员 永久VIP 发表于 2019-8-21 23:18:14 | 显示全部楼层 |阅读模式 打印 上一主题 下一主题

马上注册,轻松下载,海量资源,让你轻松玩转社区。

您需要 登录 才可以下载或查看,没有帐号?立即注册

x


◎译  名 梦幻杀人档案
◎片  名 Lord of Illusions
◎年  代 1995
◎国  家 美国
◎类  别 奇幻/恐怖/悬疑/惊悚
◎语  言 英语
◎上映日期 1995-08-25
◎IMDb评分  6.0/10 from 10,313 users
◎IMDb链接  http://www.imdb.com/title/tt0113690/
◎豆瓣评分 6.5/10 from 154 users
◎豆瓣链接 http://movie.douban.com/subject/1305246/
◎片  长 109 分钟/104 分钟(澳大利亚)/119 分钟(德国)/120 分钟(美国)
◎导  演 克里夫·巴克 Clive Barker
◎主  演 斯科特·巴库拉 Scott Bakula
      凯文·J·奥康纳 Kevin J. O Connor
      约瑟夫·拉迪莫尔 Joseph Latimore
      法米克·詹森 Famke Janssen
      希拉·图西 Sheila Tousey
      苏珊·泰勒 Susan Traylor
      Ashley Tesoro
      Michael Angelo Stuno
      Barbara Patrick
      J. Trevor Edmond
      Wayne Grace
      Mikey LeBeau
      丹尼尔·冯·巴根 Daniel von Bargen
      Johnny Venocur
      乔丹·马尔德 Jordan Marder
      巴里·德尔·舍曼 Barry Del Sherman
◎简  介
  电视影集《时空怪客》男主角斯科特·巴库拉在片中饰演一名具有超自然感应能力的私家侦探哈利。他从纽约来到洛杉矶办案,不知不觉间掉入了一个黑暗阴森的陷井。哈利偶然遇见神奇魔术师菲利浦和他的娇妻桃乐西,不久菲利浦即在台上表演时被杀,而哈利却情不自禁爱上了桃乐西。随着哈利深入调查案情,他发现菲利浦表演的神奇魔术都是跟恶魔尼克斯交换来的,而且这些都是骗人的把戏,只有移人魔术却是真的,形势逼使哈利非要跟邪恶力量决一死战不可。编导克莱夫·巴克改编自己原著的诡异惊悚小说,气氛处理颇佳,在略嫌单薄的剧情中仍然拍出了吸引人的视觉效果,是侦探小说异化的一个成功尝试。
Video
ID                                       : 1
Format                                   : AVC
Format/Info                              : Advanced Video Codec
Format profile                           : [email protected]
Format settings, CABAC                   : Yes
Format settings, ReFrames                : 4 frames
Codec ID                                 : V_MPEG4/ISO/AVC
Duration                                 : 2h 1mn
Bit rate                                 : 12.5 Mbps
Width                                    : 1 920 pixels
Height                                   : 1 040 pixels
Display aspect ratio                     : 1.85:1
Frame rate mode                          : Constant
Frame rate                               : 23.976 fps
Color space                              : YUV
Chroma subsampling                       : 4:2:0
Bit depth                                : 8 bits
Scan type                                : Progressive
Bits/(Pixel*Frame)                       : 0.262
Stream size                              : 10.6 GiB (87%)
Writing library                          : x264 core 142 r2431 ac76440
Encoding settings                        : cabac=1 / ref=4 / deblock=1:-1:-1 / analyse=0x3:0x113 / me=umh / subme=10 / psy=1 / psy_rd=1.00:0.15 / mixed_ref=1 / me_range=32 / chroma_me=1 / trellis=2 / 8x8dct=1 / cqm=0 / deadzone=21,11 / fast_pskip=1 / chroma_qp_offset=-3 / threads=6 / lookahead_threads=1 / sliced_threads=0 / nr=0 / decimate=1 / interlaced=0 / bluray_compat=0 / constrained_intra=0 / bframes=8 / b_pyramid=2 / b_adapt=2 / b_bias=0 / direct=3 / weightb=1 / open_gop=0 / weightp=2 / keyint=230 / keyint_min=23 / scenecut=40 / intra_refresh=0 / rc_lookahead=40 / rc=crf / mbtree=0 / crf=18.5 / qcomp=0.60 / qpmin=0 / qpmax=69 / qpstep=4 / vbv_maxrate=40000 / vbv_bufsize=50000 / crf_max=0.0 / nal_hrd=none / filler=0 / ip_ratio=1.40 / pb_ratio=1.30 / aq=1:1.00
Language                                 : English
Default                                  : Yes
Forced                                   : No
Audio
ID                                       : 2
Format                                   : DTS
Format/Info                              : Digital Theater Systems
Mode                                     : 16
Format settings, Endianness              : Big
Codec ID                                 : A_DTS
Duration                                 : 2h 1mn
Bit rate mode                            : Constant
Bit rate                                 : 1 509 Kbps
Channel(s)                               : 6 channels
Channel positions                        : Front: L C R, Side: L R, LFE
Sampling rate                            : 48.0 KHz
Bit depth                                : 24 bits
Compression mode                         : Lossy
Stream size                              : 1.28 GiB (11%)
Language                                 : English
Default                                  : Yes
Forced                                   : No
Text
ID                                       : 3
Format                                   : UTF-8
Codec ID                                 : S_TEXT/UTF8
Codec ID/Info                            : UTF-8 Plain Text
Language                                 : English
Default                                  : No
Forced                                   : No
Menu
00:00:00.000                             : :Chapter 01
00:13:56.252                             : :Chapter 02
00:28:25.286                             : :Chapter 03
00:44:10.731                             : :Chapter 04
00:59:55.383                             : :Chapter 05
01:17:09.249                             : :Chapter 06
01:33:42.241                             : :Chapter 07
01:57:03.975                             : :Chapter 08

精彩剧照


                                       

蓝光高清网提示您 点击下方附件名称 马上开始下载



温馨提示:
本站资源优先使用迅雷下载,迅雷会员下载,速度基本可以跑满宽带
如果遇到无资源或者版权问题无法下载,推荐使用115网盘离线下载(点击查看115网盘离线下载教程


  • 该资源需要您回复以后 刷新网页进行下载操作

  • 1、Lord.of.Illusions.1995.DC.1080p.BluRay.x264.DTS-FGT.torrent 61KB 已下载 0 次

加入蓝光高清网VIP会员  无限制下载本站所有资源---点此加入

资源下载、资源播放、字幕使用、无法下载等常见问题---点这里

回复

使用道具 举报

懒得打字嘛,点击右侧快捷回复
高级模式
B Color Image Link Quote Code Smilies 上传

本版积分规则

关注0

粉丝0

帖子69274

发布主题
最新电影 论坛
广告位
联系我们
点击这里联系客服

服务时间:
周一到周日8:00-23:30

  • 打开微信扫一扫
    关注公众号

  • 手机QQ扫一扫
    添加客服

Archiver手机版蓝光高清网 ( 渝ICP备18006373号-2 )|网站地图

Powered by Discuz! X3.4  © 2001-2013 Comsenz Inc.