游客您好
第三方账号登陆
  • 点击联系客服

    在线时间:9:00-18:00

    客服QQ

    1371333023

    电子邮件

    lanniao@1080pro.net
  • 烧友之家APP

    随时掌握烧友资讯

  • 扫描二维码

    关注微信公众号

推荐阅读
蓝鸟
未知星球 | 未知职业
  • 关注0
  • 粉丝2
  • 帖子93845
精选帖子
开启左侧

低潮 4k Low.Tide.2019.2160p.AMZN.WEB-DL.x265.10bit.HDR10plus.DDP5.1.电影下载—9.07 GB

[复制链接]
蓝鸟 发表于 2021-2-23 11:01:34 | 显示全部楼层 |阅读模式 打印 上一主题 下一主题
低潮
上映时间:2019年
类型:剧情 
地区:美国 
导演:Kevin McMullin
主演:杰登·马泰尔 / 谢伊·惠格姆 / 克里斯汀·弗劳赛斯
画质标准:4K HDR  封装音轨:Dolby TrueHD 5.1 
豆瓣评分:6.6分

加入蓝光高清网,轻松下载最新4k资源

您需要 登录 才可以下载或查看,没有帐号?立即注册

x
简       介
2 k# h0 d- A5 s) J2 t, V* v
, k5 S) Z- J: t  T8 c3 `5 i; I  艾伦、瑞德和斯米蒂在泽西海岸度过盛夏,漫步在木板路上时陷入困境。但他们发现了宝藏,这使得朋友们的怀疑和暴力升级。4 M3 U# k/ P/ R6 x, q8 L" @4 S3 i

. W3 ]$ ?; q: _( P* u5 }3 }

, W6 H' C7 _$ H+ V( `0 [: @) @& R影片参数
; u% I8 J. y4 Z' m
低潮4k Low.Tide.2019.2160p.AMZN.WEB-DL.x265.10bit.HDR10plus.DDP5.1.电影信息
5 ^) {7 s: j# Z3 l8 t5 @Video
+ Z9 q: z: f( n2 t1 z0 t$ b: JID : 1( p0 ?0 Q( X5 ?4 @" ?. A/ ]8 l
Format : HEVC
2 ^/ y& R0 d/ _- j4 V) l" ~( ?Format/Info : High Efficiency Video Coding
& N; i# Q/ O# }4 h6 p: v. oFormat profile : Main 10@L5@Main! W4 F6 d" x( O! Z
HDR format : SMPTE ST 2094 App 4, Version 1, HDR10+ Profile B compatible! {0 x1 A) h$ M; V/ Z  E) i# ]
Codec ID : V_MPEGH/ISO/HEVC2 T. v* X" n# }9 V
Duration : 1 h 25 min
, U% m+ q1 C" D+ {Bit rate : 14.5 Mb/s
$ j9 ~) ?( q! f0 F, C4 D* m8 YWidth : 3 840 pixels# N  ^) ?! y. T0 u# Z( o, Y0 u
Height : 1 600 pixels/ T( h" O* D$ P7 |% o
Display aspect ratio : 2.40:1" N' R+ ?) B2 s2 b- W
Frame rate mode : Constant% ]8 }6 M4 Q% F& z; }" T
Frame rate : 23.976 (24000/1001) FPS
" f) Z& }1 W2 R) qColor space : YUV
; t4 E2 l8 k% }Chroma subsampling : 4:2:0' N/ K+ L$ Y  O/ X) w, ^7 ?8 n; q
Bit depth : 10 bits
. [4 P+ K/ f! `4 \" g7 [Bits/(Pixel*Frame) : 0.0988 `( D' s; }$ K% n/ r" u0 q
Stream size : 8.69 GiB (96%)
8 m  L, `. ~# m& w6 Y( M; u! B& `Default : Yes
) _# s6 K2 a: D& \/ [& nForced : No
" {7 v. c  i  n- ?8 M4 O# u5 rColor range : Limited
3 J! k  v0 w8 Q5 jColor primaries : BT.20206 E9 \' i; v& V. p3 ?; d
Transfer characteristics : PQ
$ A! ?* i1 T: e( L/ I/ Z( MMatrix coefficients : BT.2020 non-constant
8 Y( G- e0 ]. S, ^Mastering display color primaries : Display P3% z" D2 D/ ^1 P
Mastering display luminance : min: 0.0020 cd/m2, max: 1000 cd/m2
2 [9 B1 ~* V8 k  j% B6 T: d; e9 m2 AMaximum Content Light Level : 7550 cd/m2
- y7 g) i' y2 R7 H% C! |5 D& ~Maximum Frame-Average Light Level : 109 cd/m2
0 o" o; Y* s/ Y- U- g0 u6 S4 A- f9 ^+ r
% k& P* g9 o* ?
Audio; x* C/ F3 G- m2 t; E# s8 w
ID : 25 B" E! N  I+ N  b; D3 r' Q
Format : E-AC-3
. {$ {( E4 d" H/ tFormat/Info : Enhanced AC-3
6 L$ J$ F* j, o* UCommercial name : Dolby Digital Plus7 t% h  v# M" @* v7 j
Codec ID : A_EAC31 p5 g! n$ E$ U: W% b
Duration : 1 h 25 min
1 Y- e6 z, s- E1 o4 p' k# ^Bit rate mode : Constant
  z/ j9 k0 D9 r6 B) vBit rate : 640 kb/s
) W. r4 N1 s& _5 D' F3 hChannel(s) : 6 channels! {# o* ^* V5 b* K) z- I
Channel layout : L R C LFE Ls Rs7 e' A" i/ H9 i! _1 g
Sampling rate : 48.0 kHz3 p5 I1 ~" D9 z2 F
Frame rate : 31.250 FPS (1536 SPF)- N7 e! R0 o. E0 O
Compression mode : Lossy6 ?( H% W* k% E5 W8 s
Stream size : 393 MiB (4%)  v6 ?' F9 D7 m3 b( Z* O6 x1 |
Title : DDP 5.1
: i. I! k& ^0 i8 rLanguage : English- O0 x/ o: r( p# V) V
Service kind : Complete Main
; \5 P$ b% U1 r. L. P- NDefault : Yes1 p6 v% @7 t- V/ g! [7 @5 U! w6 u
Forced : No
% c' G* G, e' T) D6 i0 f" j, a/ C4 {' v# M2 X6 U

8 G9 m1 J! I2 h. A- v6 ]Text6 D; O8 W& j. c" ^4 H# B' M" J& |
ID : 3% V0 x6 }4 t/ Z3 B3 s( K
Format : UTF-8
. C( e5 z9 `7 t8 G4 d5 d1 n6 jCodec ID : S_TEXT/UTF85 f4 f$ p, @4 u$ x% v, G
Codec ID/Info : UTF-8 Plain Text
4 U1 A& `9 P1 U& j! bDuration : 1 h 21 min* u2 c& D5 F7 F0 n) y! w
Bit rate : 56 b/s" d$ |- h' w# V' l9 K
Count of elements : 12526 s* @7 h. w1 U8 \0 E' P  o
Stream size : 33.9 KiB (0%)# D8 l( g3 N4 L+ r1 E* _
Title : SDH
; S, }  G3 E5 P9 X0 P! lLanguage : English
: c1 X4 _2 t/ n2 @2 f( C" d! L. }Default : No
; f& L7 f& [  b3 [, v& Q7 OForced : No& k5 i/ h8 S4 {( A
3 J7 g6 ~2 Q2 K' n  ^( ~
' k5 C- r( m8 i# O& @" w
Menu
; i$ M: U, j$ b  Z: E( `00:00:00.000 : en:Studio Logo  x! F7 v8 p, M* k; e
00:00:34.000 : en:Opening Credits
4 ]3 F: n! w1 e" ^8 s! `8 U* u$ ?00:00:49.000 : en:Scene 3
; x9 V6 [7 k; ~7 o' R- k00:01:03.000 : en:Title Sequence
! r, D' E& r9 J1 {4 n) `00:01:07.000 : en:Scene 5
% U& I. t4 d" }9 G. s4 K: h1 ]" Z$ c00:17:57.000 : en:Scene 64 D' S. x& u! j) T) ^
00:40:08.000 : en:Scene 7
! H2 s7 D* e: ]+ d( T00:58:49.000 : en:Scene 8
; I  r1 g1 K, \2 a0 ^% i3 t01:21:56.000 : en:End Credits
0 w5 |- M8 q! Q. G8 D8 |6 `/ S

8 J3 g- n/ A! I2 Z# E蓝光高清网提示您  点击下方附件名称  马上开始下载
* B! N* s) [/ f, ^" s# d
, ?( N* n* L% N9 P2 D/ n" D低潮4k Low.Tide.2019.2160p.AMZN.WEB-DL.x265.10bit.HDR10plus.DDP5.1.电影下载! L9 ^) o6 s) F" ?. I

; m/ U5 H: g) n, Z: D
低潮4k Low.Tide.2019.2160p.AMZN.WEB-DL.x265.10bit.HDR10plus.DDP5.1【9.07 GB】
6 R! z# v* b, E( E# Q 低潮4k Low.Tide.2019.2160p.AMZN.WEB-DL.x265.10bit.HDR10plus.DDP5.1-SWTYBLZ.torrent (文件大小:45.92 KB)
8 t* s  B3 K8 }
6 ^; i4 |: B( R/ y2 R
加入蓝光高清网VIP会员  无限制下载本站所有资源---点这里

资源下载、资源播放、字幕使用、无法下载等常见问题---点这里
回复

使用道具 举报

精彩评论2

gdlmxia 发表于 2021-2-26 20:44:19 | 显示全部楼层
太好啦&萬分感謝版主的無私發佈分享%
回复 支持 反对

使用道具 举报

yaoq69 发表于 2021-2-28 10:11:08 | 显示全部楼层
感谢蓝光高清网提供的优质资源
回复 支持 反对

使用道具 举报

您需要登录后才可以回帖 登录 | 立即注册

本版积分规则

烧友之家(蓝光高清网)本站内容部分由用户自主分享和转载自互联网,转载目的在于传递更多信息,并不代表本网赞同其观点和对其真实性负责。 如有侵权、违反国家法律政策行为,请联系我们,我们会第一时间及时清除和处理!
蓝光高清网 综合资讯平台
关注我们
  • 官方微信公众号
  • 扫码下载官方APP

X3.4 Licensed© 2001-2013 蓝光高清网 烧友之家APP |网站地图