开通会员
全站资源畅享下载
4k原盘抢先下载
免高清币下载
会员用户组特权
开通会员
上传
收藏
首页
开启左侧

安迪艾恩斯:上帝亲吻的宠儿4k.Andy.Irons.Kissed.by.God.2018.2160p.AMZN.WEB-DL.x265.8bit.SDR.DDP5.1.纪录片下载—10.51 GB

[复制链接]
蓝鸟 发表于 前天 11:26 | 显示全部楼层 |阅读模式 打印 上一主题 下一主题

安迪艾恩斯:上帝亲吻的宠儿(2018年上映)

主演
导演史蒂夫·琼斯 / Todd Jones
类型记录 
地区美国 
片长100分钟
画质4K SDR 原盘
音轨Dolby TrueHD 5.1 
评分豆瓣7.1分
电影【安迪艾恩斯:上帝亲吻的宠儿】原盘信息
 

加入蓝光高清网,轻松下载最新4k资源

您需要 登录 才可以下载或查看,没有帐号?立即注册

x
本帖最后由 蓝鸟 于 2021-2-23 11:27 编辑
. T0 V" U7 M. h7 t% s1 w' J; Z+ \( g0 c% |- v8 L3 p( W. b
简       介
$ G5 g( u' |& h% s/ H
8 P$ K( V* p5 R6 v7 K  A film about bipolar disorder and opioid addiction as seen through the life of three-time world champion surfer Andy Irons. Andy struggled with the same demons that millions of people worldwide battle with daily. Andy was an incredible presence on the world stage as the "People's Champion." He was the pride of Hawaii and revered around the world for his blue collar rise to fame and success. However, many were unaware of his internal battles that led to his demise. As the opioid crisis rises to a national emergency in the United States, the untold story of Andy's life serves to tear down the myths associated with these two ferocious diseases.
" F6 Y% A6 O( m  j0 G
  C/ ?+ @* M' A' L! f

4 H; B, O8 e) i1 o" g6 z影片参数) o4 L- Z* T" M" m7 `; a
安迪艾恩斯:上帝亲吻的宠儿4k.Andy.Irons.Kissed.by.God.2018.2160p.AMZN.WEB-DL.x265.8bit.SDR.DDP5.1.纪录片电影信息
4 {6 ]8 [% N7 Y+ `" bVideo
" }& j% }& V4 ?& ZID : 14 Z) J2 m, Z) i5 `. l
Format : HEVC
/ ?9 Q- X/ c5 K9 w  J& xFormat/Info : High Efficiency Video Coding$ \) d; R* N4 g% F. [
Format profile : Main@L5@Main
3 Q  x. Y, Z0 T0 r3 wCodec ID : V_MPEGH/ISO/HEVC
2 a% c5 R9 p9 F  K0 ~6 tDuration : 1 h 39 min
! _! @+ v! \% H* fBit rate : 14.4 Mb/s
1 P, X2 }2 V8 @8 B: ?* L2 o( N1 bWidth : 3 840 pixels
3 b; Q1 h/ m0 h7 H* ?2 f6 RHeight : 2 160 pixels
6 i; Q- T( E3 B' J! |Display aspect ratio : 16:9
6 W& v, [" ?6 t7 wFrame rate mode : Constant' H- M2 a, X7 U5 m* a4 l
Frame rate : 23.976 (24000/1001) FPS, a9 p8 L; ?8 P5 ~1 {
Standard : NTSC
0 _( ~! m+ ?) v, y) x) }Color space : YUV5 N: B; |7 ^2 Y( t' U1 s
Chroma subsampling : 4:2:0  E; w0 X" l3 l. t# U1 C1 c' N
Bit depth : 8 bits
3 V( x  S% [# T7 oBits/(Pixel*Frame) : 0.072
! H: f7 [' F3 a6 |8 J. ~Stream size : 10.1 GiB (96%)
7 C  g9 @) j. D, JWriting library : x265 0.0:[Linux][GCC 4.8.2][64 bit] 8bit+10bit+12bit
4 q9 i8 {8 f1 }( G+ z; i: G2 P! wEncoding settings : cpuid=1173503 / frame-threads=2 / wpp / no-pmode / no-pme / psnr / ssim / log-level=2 / csvfn=/apollo/env/YoshiEncodingWorkflowActivitiesLinuxEncoding/var/tmp/1849828207/5bdeea60-e798-4d47-9c05-11cf30f00c05/aed71122-8cdc-47af-8eca-90c735014d16_video_2160p_15000kbps.csv / csv-log-level=2 / input-csp=1 / input-res=3840x2160 / interlace=0 / total-frames=0 / level-idc=50 / high-tier=1 / uhd-bd=0 / ref=5 / no-allow-non-conformance / no-repeat-headers / annexb / no-aud / no-hrd / info / hash=0 / no-temporal-layers / no-open-gop / min-keyint=61 / keyint=120 / bframes=8 / b-adapt=2 / b-pyramid / bframe-bias=0 / rc-lookahead=120 / lookahead-slices=4 / scenecut=0 / no-intra-refresh / ctu=64 / min-cu-size=8 / rect / amp / max-tu-size=32 / tu-inter-depth=4 / tu-intra-depth=4 / limit-tu=4 / rdoq-level=2 / dynamic-rd=0.00 / no-ssim-rd / signhide / tskip / nr-intra=100 / nr-inter=600 / no-constrained-intra / strong-intra-smoothing / max-merge=3 / limit-refs=3 / limit-modes / me=3 / subme=3 / merange=57 / temporal-mvp / weightp / weightb / no-analyze-src-pics / deblock=0:0 / no-sao / no-sao-non-deblock / rd=4 / no-early-skip / no-rskip / no-fast-intra / tskip-fast / no-cu-lossless / b-intra / rdpenalty=0 / psy-rd=4.00 / psy-rdoq=10.00 / no-rd-refine / analysis-reuse-mode=0 / no-lossless / cbqpoffs=0 / crqpoffs=0 / rc=crf / crf=25.0 / qcomp=0.60 / qpstep=1 / stats-write=0 / stats-read=0 / vbv-maxrate=15000 / vbv-bufsize=20000 / vbv-init=0.9 / crf-max=0.0 / crf-min=0.0 / ipratio=1.10 / pbratio=1.00 / aq-mode=0 / aq-strength=1.50 / no-cutree / zone-count=0 / no-strict-cbr / qg-size=32 / rc-grain / qpmax=69 / qpmin=0 / const-vbv / sar=1 / overscan=0 / videoformat=2 / range=0 / colorprim=1 / transfer=1 / colormatrix=1 / chromaloc=0 / display-window=0 / max-cll=0,0 / min-luma=0 / max-luma=255 / log2-max-poc-lsb=8 / vui-timing-info / vui-hrd-info / slices=1 / opt-qp-pps / opt-ref-list-length-pps / no-multi-pass-opt-rps / scenecut-bias=0.05 / no-opt-cu-delta-qp / no-aq-motion / no-hdr / no-hdr-opt / no-dhdr10-opt / analysis-reuse-level=5 / scale-factor=0 / refine-intra=0 / refine-inter=0 / refine-mv=0 / no-limit-sao / ctu-info=0
# c; p9 A/ \' e' ~* P2 f( PDefault : Yes
9 i1 v/ f/ j- ~7 U6 L( YForced : No
; d9 S& e( e( A( g+ M8 a. ]! nColor range : Limited( i0 r5 {9 x' I; E
Color primaries : BT.709
; X0 i5 K7 K1 D* L6 sTransfer characteristics : BT.709' f5 d# D% b# b$ }; B5 O0 @) l; c
Matrix coefficients : BT.7095 q. Z# H1 D( w) X$ i/ f

3 R/ R) R7 O  t' C! P

8 t/ o# w7 ], l" b3 [$ QAudio
, U+ w; A! A! W% }0 _' U' SID : 22 [6 O% n/ m3 @: Z9 P; W
Format : E-AC-3
3 q+ U6 D6 H) wFormat/Info : Enhanced AC-3
# I# W# w& J  E; M' _: x$ |Commercial name : Dolby Digital Plus; W" c# i, g$ Y# e: p
Codec ID : A_EAC3
# v6 _# _& n, @" i4 E3 z3 vDuration : 1 h 39 min
& x. E$ P! J$ n( }Bit rate mode : Constant: c7 X$ a: K6 l2 V" D' O
Bit rate : 640 kb/s4 C$ G9 a" B) j2 P7 M
Channel(s) : 6 channels
7 Q6 d3 n( R$ fChannel layout : L R C LFE Ls Rs. q' R$ l5 Q; P3 p% E  @0 v+ W
Sampling rate : 48.0 kHz
( k( D8 c; w! {$ YFrame rate : 31.250 FPS (1536 SPF)
* s  I, X' ~3 W3 @Compression mode : Lossy; B4 Q* X- G* E6 Y: m. A7 V8 v( m
Stream size : 458 MiB (4%)
/ t/ K; \- n; \3 R- q& W% q: d$ [& g# uTitle : DDP 5.1
, U& G/ V6 O% d9 }- N; J0 d. c* \Language : English$ h# N% \. @5 R8 w/ t* u- L' s5 d6 C
Service kind : Complete Main
( p/ W) d- G, K# M! A1 k. ~. @$ zDefault : Yes& g; P1 P+ o. C- [' U" ?
Forced : No  ?8 o9 o( A# [" a+ q3 `
$ ]( I# P  L( ?6 b

: T- X0 Q: j; d* M. V1 gText/ L: r# j# }, m) j4 \, a. N- b" w
ID : 35 M/ b" i0 e4 r* v4 K; P
Format : UTF-8! D( v! a0 T% d+ a: w; N
Codec ID : S_TEXT/UTF8: t5 q+ o- R1 L% z* ^+ F
Codec ID/Info : UTF-8 Plain Text
) x  F4 [2 m0 J# l# G3 WDuration : 1 h 34 min
( l8 {( h' `/ ]3 IBit rate : 89 b/s, l  `6 `! D2 M1 P( n: X+ j
Count of elements : 1423' g& G, s5 @$ m; j) d
Stream size : 61.4 KiB (0%)
- r& U: m) R" Q; `Title : SDH0 J; I6 K3 K' m4 Z: P( g; L
Language : English; a8 y( |2 z7 g% _2 e
Default : No
! f3 D" a1 R. L: _( U( X+ o- V2 fForced : No
# s5 Y0 i. r' h- @" W* Z  [
蓝光高清网提示您  点击下方附件名称  马上开始下载
) B/ M  N- _4 X9 W0 ^8 g/ t- i5 l' r- t$ f. J
0 u- I8 T4 h7 p: P
安迪艾恩斯:上帝亲吻的宠儿4k.Andy.Irons.Kissed.by.God.2018.2160p.AMZN.WEB-DL.x265.8bit.SDR.DDP5.1.纪录片电影下载
- O0 s6 |  n8 V: k* O9 ^  a7 p) ?6 z# h
安迪艾恩斯:上帝亲吻的宠儿4k.Andy.Irons.Kissed.by.God.2018.2160p.AMZN.WEB-DL.x265.8bit.SDR.DDP5.1【10.51 GB】
0 N& J1 X" n" [" t) y# d- b9 g6 o 安迪艾恩斯:上帝亲吻的宠儿4k Andy.Irons.Kissed.by.God.2018.2160p.AMZN.WEB.torrent (文件大小:53.15 KB)

7 @; c  e$ V: B/ S5 I/ \! J
5 t+ J: ]- n+ V9 x
. X9 Q  c) ~# j$ g  d) n
加入蓝光高清网VIP会员  无限制下载本站所有资源---点这里

资源下载、资源播放、字幕使用、无法下载等常见问题---点这里
回复

使用道具 举报

 
您需要登录后才可以回帖 登录 | 立即注册

本版积分规则

0关注

2粉丝

93698帖子

  • 版块推荐
  • 百宝箱

电影推荐

更多+

热门电影

更多+

下载APP 签到更便捷

官方微信

手机APP

蓝光高清网

专注4k电影、4k视频、VR视频、高清电影、蓝光原盘资源

本站内容部分由用户自主分享和转载自互联网,转载目的在于传递更多信息,并不代表本网赞同其观点和对其真实性负责。

如有侵权、违反国家法律政策行为,请联系我们,我们会第一时间及时清除和处理!

举报反馈邮箱:lanniao@1080pro.net

Copyright   ©2019-2020  蓝光高清网    |网站地图