游客您好
第三方账号登陆
  • 客服在线时间

    周一至周五 8:30-17:30
  • 烧友之家APP

    随时掌握烧友资讯

  • 扫描二维码

    关注微信公众号

推荐阅读
蓝鸟
未知星球 | 未知职业
  • 关注0
  • 粉丝2
  • 帖子96539
精选帖子
开启左侧

幽灵之城 4k City.of.Ghosts.2017.2160p.AMZN.WEB-DL.x265.8bit.SDR.DTS-HD.MA.5.1.纪录片下载—11.07 GB

[复制链接]
蓝鸟 发表于 2021-2-23 11:37:14 | 显示全部楼层 |阅读模式 打印 上一主题 下一主题
幽灵之城
上映时间:2017年
类型:纪录 
地区:美国 
导演:马修·海涅曼
主演:阿布·巴克尔·巴格达迪 / Hamoud / Hassan / Hussam / Naji Jerf
画质标准:4K SDR  封装音轨:DTS-HD.MA 5.1 
豆瓣评分:8.0分
简       介) G" y3 X: j9 W

- |6 {( I, P. H  This is the story of a new type of warfare: a battle over ideas, over hearts and minds, over clicks and views.
+ F) S' f0 |$ [7 L/ Y6 }' X  《幽灵城》(City of Ghosts) 导演:马修·海涅曼(Matthew Heineman) 入围2017年圣丹斯电影节
( q. @9 S& k# p) H( P7 Y6 T! t

: B! y/ E6 t" ^- y8 Z1 v

8 k7 r# R% y# M4 e2 ]影片参数$ {  z5 q, }3 t: {
Miasto duchów/幽灵之城4k City.of.Ghosts.2017.2160p.AMZN.WEB-DL.x265.8bit.SDR.DTS-HD.MA.5.1.纪录片电影信息/ ~0 J1 _) v) k( a9 o7 p/ l
Video
$ v. o7 @$ k5 B5 X( HID : 1# X$ G5 E: q, l  D. z4 W  l$ H4 m& X
Format : HEVC) K( b3 V2 P' F0 l3 E: q/ \
Format/Info : High Efficiency Video Coding
" A4 ?7 `" z6 K  C6 @5 t4 ^* FFormat profile : Main@L5@Main  Z8 a2 Q- `" }" X7 f, m
Codec ID : V_MPEGH/ISO/HEVC' Y+ t1 J& A& [( C0 ]8 U0 l
Duration : 1 h 32 min
/ w: I% `" Y# C8 xBit rate : 12.9 Mb/s
8 u: \9 G" y- r. ]+ mWidth : 3 840 pixels
1 B+ X6 Q, Q0 X6 Y) C7 SHeight : 2 160 pixels& `: \9 p4 \; g" K' ^# j! t
Display aspect ratio : 16:9
: e. d/ `7 |9 i/ U* J& d' p% D3 LFrame rate mode : Constant: e) s6 @( ~5 [8 ]8 e3 O
Frame rate : 23.976 (24000/1001) FPS
: P( X) _- [2 f# m. _4 CStandard : NTSC
" N+ X" A7 c: E* G% CColor space : YUV0 \% A% n- e. I+ U
Chroma subsampling : 4:2:0
- i3 e% g2 F2 qBit depth : 8 bits
6 t2 W& q. H% w! A; x/ V' HBits/(Pixel*Frame) : 0.065
) P# f& F/ _' O# JStream size : 8.29 GiB (75%)
1 A! k3 c+ C+ H( N2 FWriting library : x265 2.9_elemental+1-9e0607aa5b6f:[Linux][GCC 4.8.5][64 bit] 8bit+10bit+12bit/ R. v( a/ V, |: x% T+ `6 ~0 i" h
Encoding settings : cpuid=1111039 / frame-threads=2 / wpp / no-pmode / no-pme / psnr / ssim / log-level=2 / csv / csv-log-level=2 / input-csp=1 / input-res=3840x2160 / interlace=0 / total-frames=0 / level-idc=50 / high-tier=1 / uhd-bd=0 / ref=5 / no-allow-non-conformance / no-repeat-headers / annexb / no-aud / no-hrd / info / hash=0 / no-temporal-layers / no-open-gop / min-keyint=61 / keyint=120 / gop-lookahead=0 / bframes=8 / b-adapt=2 / b-pyramid / bframe-bias=0 / rc-lookahead=120 / lookahead-slices=4 / scenecut=0 / radl=0 / no-intra-refresh / ctu=64 / min-cu-size=8 / rect / amp / max-tu-size=32 / tu-inter-depth=4 / tu-intra-depth=4 / limit-tu=4 / rdoq-level=2 / dynamic-rd=0.00 / no-ssim-rd / signhide / tskip / nr-intra=100 / nr-inter=600 / no-constrained-intra / strong-intra-smoothing / max-merge=3 / limit-refs=3 / limit-modes / me=3 / subme=3 / merange=57 / temporal-mvp / weightp / weightb / no-analyze-src-pics / deblock=0:0 / no-sao / no-sao-non-deblock / rd=4 / no-early-skip / no-rskip / no-fast-intra / tskip-fast / no-cu-lossless / b-intra / no-splitrd-skip / rdpenalty=0 / psy-rd=4.00 / psy-rdoq=10.00 / no-rd-refine / no-lossless / cbqpoffs=0 / crqpoffs=0 / rc=crf / crf=25.0 / qcomp=0.60 / qpstep=1 / stats-write=0 / stats-read=0 / vbv-maxrate=15000 / vbv-bufsize=20000 / vbv-init=0.9 / crf-max=0.0 / crf-min=0.0 / ipratio=1.10 / pbratio=1.00 / aq-mode=0 / aq-strength=1.50 / no-cutree / zone-count=0 / no-strict-cbr / qg-size=32 / rc-grain / qpmax=69 / qpmin=0 / const-vbv / sar=1 / overscan=0 / videoformat=2 / range=0 / colorprim=1 / transfer=1 / colormatrix=1 / chromaloc=0 / display-window=0 / max-cll=0,0 / min-luma=0 / max-luma=255 / log2-max-poc-lsb=8 / vui-timing-info / vui-hrd-info / slices=1 / opt-qp-pps / no-opt-ref-list-length-pps / no-multi-pass-opt-rps / scenecut-bias=0.05 / no-opt-cu-delta-qp / no-aq-motion / no-hdr / no-hdr-opt / no-dhdr10-opt / no-idr-recovery-sei / analysis-reuse-level=5 / scale-factor=0 / refine-intra=0 / refine-inter=0 / refine-mv=0 / no-limit-sao / ctu-info=0 / no-lowpass-dct / refine-mv-type=0 / copy-pic=1 / max-ausize-factor=1.0 / no-dynamic-refine / no-single-sei
9 A1 ]5 B: S4 O. i$ [( |Default : Yes5 F. s+ I  Q4 C8 O+ O
Forced : No
% v& l6 z5 n  M' l2 R+ oColor range : Limited4 n" K* }; y: |" A4 N% |" N5 ]7 f
Color primaries : BT.709, ^( G6 [# @5 x- m1 @" B
Transfer characteristics : BT.709& H7 K5 Z& Q! s1 F9 y2 Q0 x. |
Matrix coefficients : BT.709! n' q( d* n$ K3 V' i! P

7 V/ X& w, |. S' y

+ `/ C+ U- H3 \$ h2 z0 fAudio #17 y& X" u5 I; A
ID : 2! J. h- J$ a5 O  |6 R
Format : DTS XLL
0 ]  q; c  I8 M5 b4 \- C. tFormat/Info : Digital Theater Systems2 ]6 e! }$ c& @9 t- ~: ~3 g! e( {) s2 P
Commercial name : DTS-HD Master Audio
  w* M8 ^4 T/ ~Codec ID : A_DTS0 h7 I; r  i4 p: x) d
Duration : 1 h 32 min, t4 Q1 U4 ~9 I4 d2 o% j
Bit rate mode : Variable& \0 B$ A' F$ c- }
Bit rate : 3 679 kb/s
/ |. Y4 @0 W* [' p5 c+ R- k7 xChannel(s) : 6 channels
* d# l' U& V3 x. X: S  z& ]Channel layout : C L R Ls Rs LFE
; |: U% ?- _3 n0 Q+ @Sampling rate : 48.0 kHz8 t5 W/ J2 x; ~  O8 Z
Frame rate : 93.750 FPS (512 SPF)
7 i/ v* @/ [! u& {Bit depth : 24 bits# E2 f  K$ |: u* R: t* b1 t
Compression mode : Lossless
& l) }$ v# G! ZDelay relative to video : 2 ms
1 E/ p7 S; v, _) p, tStream size : 2.37 GiB (21%)# @+ V# r# `- h
Title : DTS-HD MA 5.1
7 N8 L. `  c! ^. Z  Z9 QLanguage : English5 b+ S) l/ @+ Z% K6 d/ w
Default : Yes
- K2 E7 ~# y3 F: oForced : No6 S' m% @8 a7 s( D" w

/ t) @; D% n, N  _/ t. o3 c3 `

0 d; N% p' \2 f2 q/ H/ GAudio #29 @! `3 L+ d6 l/ {
ID : 3
: E8 [4 J" T2 Q0 S" m6 {7 K6 y& JFormat : E-AC-3" Q+ g* g5 E+ G" Y$ E
Format/Info : Enhanced AC-3
% B" w) W0 x+ s/ n# j% T* y% I- mCommercial name : Dolby Digital Plus6 ~, B* ^% X2 s! T* S4 P
Codec ID : A_EAC3
; K" j- A8 |% l0 d: YDuration : 1 h 32 min
' i) S( I# T! ]6 ^. P  j2 C; i: uBit rate mode : Constant
# x  k) Z; s: z/ w+ PBit rate : 640 kb/s8 d3 g8 }' l0 o, H1 M2 e7 u
Channel(s) : 6 channels- y7 [# l4 x# {4 C6 H# B1 W
Channel layout : L R C LFE Ls Rs7 G+ g+ |. l  {6 w5 E' H0 E( T
Sampling rate : 48.0 kHz2 B* X- a- K, f- r  b3 X
Frame rate : 31.250 FPS (1536 SPF)
$ C7 G/ m. E+ Y  e; UCompression mode : Lossy
* O* T! P& Y8 Z* ~) iStream size : 422 MiB (4%); D6 h7 B' Q5 P) s. X1 F4 p
Title : DDP 5.1( K0 Q" d' ^/ P; w7 y
Language : English" i! @# Q* O$ I6 E  w
Service kind : Complete Main- |7 X9 Z7 V. B/ ]
Default : No- ?: e7 N- B8 u  u
Forced : No
3 q$ a4 \" t; \$ \$ x% @$ t# W6 V; p& ]' o; s, V/ D

1 D, i3 \8 d5 P* p+ BText #19 t4 m: _* G* O+ B3 Z# _
ID : 4
: Y! r( r5 Y% D6 X% @4 @# vFormat : UTF-8
1 P1 X5 B0 }! |! oCodec ID : S_TEXT/UTF8
9 I/ K; _1 P* A$ d! pCodec ID/Info : UTF-8 Plain Text
2 ]( s# H+ T5 m. ~; k) Q- x! TDuration : 1 h 31 min
5 `' s0 w( f2 o  {  m1 r$ a- V5 d( bBit rate : 13 b/s  u& n9 s6 ~$ }$ ^7 `
Count of elements : 453- U4 @- J& j8 G% z) t: R/ r0 z9 s
Stream size : 8.93 KiB (0%)0 p: z* X7 k! q8 `8 j3 Y) |
Title : English-SRT
3 ^6 T+ O" {2 `7 v9 r% V8 }Language : English4 F; N& X0 W2 h' Q
Default : Yes7 ]+ ?' o# x6 n0 x9 E
Forced : No
* O4 c' r6 a2 I2 m. _2 N3 e8 u2 \
8 p/ S( h' d- t
Text #2
6 H" \" L1 m4 d$ q2 I: V5 \ID : 5
+ r  V& _6 _+ b9 ^. RFormat : PGS
2 u9 w; f+ I: B  ^9 TMuxing mode : zlib$ D; J( H8 j$ r$ D
Codec ID : S_HDMV/PGS
3 W& b0 R$ I, D7 f! A# N6 g% r" \$ vCodec ID/Info : Picture based subtitle format used on BDs/HD-DVDs5 n% P" u+ @  M, v
Duration : 1 h 31 min
. i, U" V2 y  mBit rate : 7 150 b/s
& `* j" }! Q2 e3 iCount of elements : 1033( I8 ?# w/ [# C0 Q; I' q
Stream size : 4.67 MiB (0%). N+ v( a2 e3 r8 n* p
Title : English-PGS
: ^. _; f. c9 c" VLanguage : English
$ E8 g8 y, X6 X7 o) q; KDefault : No
% I! N( T+ s- s$ lForced : No
- |+ F# _% G: n0 u( V3 v4 A; G7 I! T; R7 C  p+ F
, K3 P1 U8 d4 J) ?( {
Menu+ e% F* A: ]. l& n
00:00:00.000 : :Chapter 01( s9 a+ z7 e- I: c; E
00:09:53.468 : :Chapter 02) [0 B1 D, u& O& D( K
00:18:55.259 : :Chapter 03) C  w) p0 O5 @$ D: |
00:27:37.990 : :Chapter 04* v' Z/ e* U9 y# K' {2 e9 `. p
00:37:48.057 : :Chapter 05% O5 a; `5 g8 }1 r* T7 \
00:45:01.324 : :Chapter 06
+ }& Y, u6 V: b2 n2 W# x" j1 B00:49:46.609 : :Chapter 07
( N+ C/ n5 D+ g) L" C01:00:00.764 : :Chapter 08
: D+ s( j1 ?4 S/ f. M01:04:55.850 : :Chapter 093 H4 ~* n7 X( r; Z1 U; t' U" ]
01:11:32.455 : :Chapter 10
7 N$ ~" |6 a* \01:19:45.531 : :Chapter 11
, U3 d2 k1 b6 M; f2 r- d5 [: y01:27:59.274 : :Chapter 12

; ^! o9 i* @+ y1 O( E

# ], F7 q  ^8 l2 p* Y蓝光高清网提示您  点击下方附件名称  马上开始下载8 D( T0 [4 ?8 J* ~6 ?
  v9 a8 R( E4 F. U* @7 _

: x2 g3 @- M) i/ {  FMiasto duchów/幽灵之城4k City.of.Ghosts.2017.2160p.AMZN.WEB-DL.x265.8bit.SDR.DTS-HD.MA.5.1.纪录片电影下载: v( T' ?6 }) A2 I7 z% Q

7 T) z" j# W6 t$ R* H3 Y; Q7 k
幽灵之城4k City.of.Ghosts.2017.2160p.AMZN.WEB-DL.x265.8bit.SDR.DTS-HD.MA.5.1【11.07 GB】. c# y9 [- {/ W( Q" j! ^- ]/ l
幽灵之城4k City.of.Ghosts.2017.2160p.AMZN.WEB-DL.x265.8bit.SDR.DTS-HD.MA..torrent (大小:55.94 KB)
- A  z2 P, Q) l6 B
% i' P" M6 p9 c/ m. ^
幽灵之城中文字幕下载(来源字幕库 未校验)+ r" w4 V2 v* ~- ?& d- q
City.of.Ghosts.2017.DOCU.1080p.WEB-DL.DD5.1.H264-FGT.zip (大小:3.71 KB)

; {1 V3 @$ _0 f

% p) A8 l* N2 S9 H- @7 i
加入蓝光高清网VIP会员  无限制下载本站所有资源---点这里

资源下载、资源播放、字幕使用、无法下载等常见问题---点这里
回复

使用道具 举报

精彩评论3

周文手机认证 发表于 2021-2-23 15:42:39 | 显示全部楼层
太好啦&萬分感謝版主的無私發佈分享%
回复 支持 反对

使用道具 举报

feiyue 发表于 2021-2-23 22:44:49 | 显示全部楼层

! f& h2 \# Q( t9 k2 Q; \天天访问蓝光高清网  天天打卡  习惯了
回复 支持 反对

使用道具 举报

bengoben手机认证 发表于 2021-2-24 23:39:02 | 显示全部楼层
$ n5 c, u( |! K* A. d; E- \& \
非常感谢蓝光高清网给大家的享乐4k,祝蓝光高清网越办越好!~~~
回复 支持 反对

使用道具 举报

您需要登录后才可以回帖 登录 | 立即注册

本版积分规则

烧友之家(蓝光高清网)本站内容部分由用户自主分享和转载自互联网,转载目的在于传递更多信息,并不代表本网赞同其观点和对其真实性负责。 如有侵权、违反国家法律政策行为,请联系我们,我们会第一时间及时清除和处理!
关注我们
  • 官方微信公众号
  • 扫码下载官方APP

X3.4 Licensed© 2001-2013 蓝光高清网 烧友之家APP |网站地图