开通会员
全站资源畅享下载
4k原盘抢先下载
免高清币下载
会员用户组特权
开通会员
上传
收藏
首页
开启左侧

幽灵之城 4k City.of.Ghosts.2017.2160p.AMZN.WEB-DL.x265.8bit.SDR.DTS-HD.MA.5.1.纪录片下载—11.07 GB

[复制链接]
蓝鸟 发表于 前天 11:37 | 显示全部楼层 |阅读模式 打印 上一主题 下一主题

幽灵之城(2017年上映)

主演阿布·巴克尔·巴格达迪 / Hamoud / Hassan / Hussam / Naji Jerf
导演马修·海涅曼
类型记录 
地区美国 
片长92分钟
画质4K SDR 原盘
音轨DTS-HD.MA 5.1 
评分豆瓣8.0分
电影【幽灵之城】原盘信息
 

加入蓝光高清网,轻松下载最新4k资源

您需要 登录 才可以下载或查看,没有帐号?立即注册

x
简       介  I1 i4 A4 U/ _+ L5 x( O
  j+ I( ]% @, \, [$ a! H* H3 F; m' a
  This is the story of a new type of warfare: a battle over ideas, over hearts and minds, over clicks and views.) [6 y1 B, m1 v# |- \
  《幽灵城》(City of Ghosts) 导演:马修·海涅曼(Matthew Heineman) 入围2017年圣丹斯电影节

; e, s4 c: G% u- a
, D: r! ?& g0 R: c$ E
% ~" n) W! ^8 R
影片参数0 E  n: j6 q8 Z, H$ @, d5 T7 D
Miasto duchów/幽灵之城4k City.of.Ghosts.2017.2160p.AMZN.WEB-DL.x265.8bit.SDR.DTS-HD.MA.5.1.纪录片电影信息( g/ p; H8 |+ m6 h  ~, m
Video) c) s6 d0 S# K( Z0 S
ID : 1
6 y: v# F. j- c/ m5 T0 z; A% bFormat : HEVC( ~" M# }- ^& h7 ?3 u
Format/Info : High Efficiency Video Coding
6 m4 Y9 H" j7 U1 Q8 ]% pFormat profile : Main@L5@Main
( U: T1 U1 x# o' W$ i; T# Y& F$ y3 uCodec ID : V_MPEGH/ISO/HEVC
5 w- {- E( b1 D( k. BDuration : 1 h 32 min
1 c' g7 j2 ^1 R7 `Bit rate : 12.9 Mb/s
- M/ N, G4 }( Y% Z. X& e& YWidth : 3 840 pixels5 y! P/ _7 O, F4 A* A1 o1 K8 O, q
Height : 2 160 pixels
  O% V  v8 v- ]Display aspect ratio : 16:9# W! N$ [  x$ [+ n
Frame rate mode : Constant: x' K& V$ I- n: y
Frame rate : 23.976 (24000/1001) FPS
, ~' O7 V( K* A0 |9 G- f' X$ KStandard : NTSC) e1 ?# Y7 T/ @. m, S; I
Color space : YUV
' x# y2 N% W- J! E6 ^7 g$ hChroma subsampling : 4:2:0
9 Y1 t, s5 v) s5 }/ E/ P7 ?Bit depth : 8 bits  @* ?2 _. _6 a% D& ~& _
Bits/(Pixel*Frame) : 0.065% }% F+ S1 L. c# z3 a
Stream size : 8.29 GiB (75%)' s; l+ [. ~9 c( d+ ^  R; v) H
Writing library : x265 2.9_elemental+1-9e0607aa5b6f:[Linux][GCC 4.8.5][64 bit] 8bit+10bit+12bit
; [" I- Z! e; Y1 LEncoding settings : cpuid=1111039 / frame-threads=2 / wpp / no-pmode / no-pme / psnr / ssim / log-level=2 / csv / csv-log-level=2 / input-csp=1 / input-res=3840x2160 / interlace=0 / total-frames=0 / level-idc=50 / high-tier=1 / uhd-bd=0 / ref=5 / no-allow-non-conformance / no-repeat-headers / annexb / no-aud / no-hrd / info / hash=0 / no-temporal-layers / no-open-gop / min-keyint=61 / keyint=120 / gop-lookahead=0 / bframes=8 / b-adapt=2 / b-pyramid / bframe-bias=0 / rc-lookahead=120 / lookahead-slices=4 / scenecut=0 / radl=0 / no-intra-refresh / ctu=64 / min-cu-size=8 / rect / amp / max-tu-size=32 / tu-inter-depth=4 / tu-intra-depth=4 / limit-tu=4 / rdoq-level=2 / dynamic-rd=0.00 / no-ssim-rd / signhide / tskip / nr-intra=100 / nr-inter=600 / no-constrained-intra / strong-intra-smoothing / max-merge=3 / limit-refs=3 / limit-modes / me=3 / subme=3 / merange=57 / temporal-mvp / weightp / weightb / no-analyze-src-pics / deblock=0:0 / no-sao / no-sao-non-deblock / rd=4 / no-early-skip / no-rskip / no-fast-intra / tskip-fast / no-cu-lossless / b-intra / no-splitrd-skip / rdpenalty=0 / psy-rd=4.00 / psy-rdoq=10.00 / no-rd-refine / no-lossless / cbqpoffs=0 / crqpoffs=0 / rc=crf / crf=25.0 / qcomp=0.60 / qpstep=1 / stats-write=0 / stats-read=0 / vbv-maxrate=15000 / vbv-bufsize=20000 / vbv-init=0.9 / crf-max=0.0 / crf-min=0.0 / ipratio=1.10 / pbratio=1.00 / aq-mode=0 / aq-strength=1.50 / no-cutree / zone-count=0 / no-strict-cbr / qg-size=32 / rc-grain / qpmax=69 / qpmin=0 / const-vbv / sar=1 / overscan=0 / videoformat=2 / range=0 / colorprim=1 / transfer=1 / colormatrix=1 / chromaloc=0 / display-window=0 / max-cll=0,0 / min-luma=0 / max-luma=255 / log2-max-poc-lsb=8 / vui-timing-info / vui-hrd-info / slices=1 / opt-qp-pps / no-opt-ref-list-length-pps / no-multi-pass-opt-rps / scenecut-bias=0.05 / no-opt-cu-delta-qp / no-aq-motion / no-hdr / no-hdr-opt / no-dhdr10-opt / no-idr-recovery-sei / analysis-reuse-level=5 / scale-factor=0 / refine-intra=0 / refine-inter=0 / refine-mv=0 / no-limit-sao / ctu-info=0 / no-lowpass-dct / refine-mv-type=0 / copy-pic=1 / max-ausize-factor=1.0 / no-dynamic-refine / no-single-sei, ?! Z& o, i! Q$ P
Default : Yes, ?, c' x; ^( W& D3 c
Forced : No* s5 p1 Q1 S& ~8 [
Color range : Limited
0 |4 \( I3 y; z; Z  e! x0 L5 VColor primaries : BT.709
( Z! Y& a: C1 p: M  o: ~( G7 fTransfer characteristics : BT.709
9 D1 V- s2 m  i7 X4 OMatrix coefficients : BT.709
- |+ P5 y9 E' I7 l3 R3 o, a1 \- O( N( U
" `( M3 \' J3 Z. t; v
Audio #18 M. S6 U- O+ a
ID : 2
0 G- d3 l6 z# J- rFormat : DTS XLL; e) b0 _, S( }0 G0 o: G2 }
Format/Info : Digital Theater Systems, Q$ }% U$ T" O/ G8 X& x9 X0 p7 m- }
Commercial name : DTS-HD Master Audio
' ]) ]- B% T- N! o5 ^. s; LCodec ID : A_DTS
' B+ P2 m- x, M; c0 s7 HDuration : 1 h 32 min( \0 l5 A+ G) p
Bit rate mode : Variable4 `4 S* B& A1 W. p5 @! r3 u1 n* [
Bit rate : 3 679 kb/s
" y# d: ^$ w2 `3 n. I" UChannel(s) : 6 channels4 c! ?/ w: f% ]7 Q0 t( m) G
Channel layout : C L R Ls Rs LFE
& a2 x% O* ~9 m# X4 \Sampling rate : 48.0 kHz/ p' t; m" v3 G3 @6 F2 ?; b
Frame rate : 93.750 FPS (512 SPF)
' L, x, {) X% Z/ lBit depth : 24 bits
4 _5 o" K! |( O! a# rCompression mode : Lossless# u; a; U: J0 A; R" Q5 t9 @
Delay relative to video : 2 ms
7 o+ L  l5 A6 [Stream size : 2.37 GiB (21%)
0 O- ]3 P- B" eTitle : DTS-HD MA 5.1
" o' y" Y# v8 A) a+ \, k4 Y2 hLanguage : English" ]- I( Z- I1 G7 i' ~
Default : Yes
! a) q% D! i$ M" f' VForced : No
! S% h6 ?- u2 z% I
+ s, i0 a1 U) d( Z9 E5 G

# d/ @8 C& N; B5 i$ J) Z+ _Audio #20 A; i6 z# w, F
ID : 3
# w9 b! h. r5 C! @  x* zFormat : E-AC-34 A# @/ I' u/ T
Format/Info : Enhanced AC-3" H% G: L! Z+ _5 l9 ~* t* v
Commercial name : Dolby Digital Plus5 G7 U, n$ J! N" E% S
Codec ID : A_EAC33 a- C* |0 p7 v+ ~2 N
Duration : 1 h 32 min
) ^" p. g5 W5 c4 e$ E8 x) FBit rate mode : Constant
3 c, ]' i+ H, X9 fBit rate : 640 kb/s  l1 U/ y0 @$ R' p  C; H& P. O0 c
Channel(s) : 6 channels! @" x" u4 F$ z) n2 h2 e; H% E! D
Channel layout : L R C LFE Ls Rs
$ b4 F4 y- G$ |7 ?1 a% b: Z5 QSampling rate : 48.0 kHz
* F) `. |: r* {Frame rate : 31.250 FPS (1536 SPF)
2 H- V. e" Q7 m5 E" N+ {; uCompression mode : Lossy
6 w' s4 e& @2 d, lStream size : 422 MiB (4%)
# r' j+ R  _* _Title : DDP 5.1
; W2 ]! Q* x+ F( F  ELanguage : English
3 b5 |/ l; X( z% q/ BService kind : Complete Main
; ?' X7 h; z+ I& t- R& b# zDefault : No
& j: f$ q0 o/ jForced : No& U4 G/ J( l$ M

/ f7 v1 N. X3 G( O; s) k7 [
6 F; G$ s' [/ o5 y! q, ]
Text #12 h! {" ^" j( A2 v- G. e
ID : 4
  B) q' f& H6 x7 d2 uFormat : UTF-8
* T6 m) O3 L: \/ fCodec ID : S_TEXT/UTF8
' O# I8 z6 I+ m% w/ Z) f# H# E2 TCodec ID/Info : UTF-8 Plain Text$ I$ ?% m, [+ Z1 @8 D( W
Duration : 1 h 31 min) s/ T( e* s# Q, {
Bit rate : 13 b/s5 {- }: N& V8 B4 y: B9 h5 I3 z4 o
Count of elements : 453
, n) O1 |7 r; l' a  ~Stream size : 8.93 KiB (0%)
7 `( ]( R# h5 }) rTitle : English-SRT6 A$ }; A% }: o' T3 K: k: \
Language : English
* ]" |* H  I( _3 uDefault : Yes
- z( I' A, C: s  q* g  e( a+ v9 aForced : No+ M: X6 r8 c6 v  ]3 ]

- j; V! B1 A! o; {9 R, P, w

0 J; N) l+ l/ b2 jText #2$ ~: r. ]: R% K$ ^) O: a. x$ K
ID : 56 S" E5 D' s3 u! x- f6 T' a3 x/ A% @# L5 @
Format : PGS
" [( G5 u0 J/ d- h/ CMuxing mode : zlib9 u3 g( D; y' O9 d* B
Codec ID : S_HDMV/PGS
& a4 |2 y/ A' D/ ]+ `1 GCodec ID/Info : Picture based subtitle format used on BDs/HD-DVDs: `$ S$ {! ?2 E8 c: z
Duration : 1 h 31 min  n0 W5 X  P' L% I. T! l
Bit rate : 7 150 b/s/ t8 q& ?; S) [
Count of elements : 1033
/ O: `5 M- d( Y6 fStream size : 4.67 MiB (0%)$ s# Q, d/ S: b+ T& Z% [# H/ t
Title : English-PGS
! N6 p& V9 Z0 L; j7 H2 ULanguage : English
9 o( w( B  s4 j6 S. j( @Default : No
8 U6 k+ y/ |7 N* Y' @1 }( eForced : No
+ y' y- w# L- r3 K% W6 Q
5 E; {( _8 u: B4 D6 f% ^' o

9 N; |! g2 o: A) r) |- b- _3 nMenu
6 S8 @% j3 V; V00:00:00.000 : :Chapter 01
3 O1 A! J, {5 j" t00:09:53.468 : :Chapter 02& ^$ [/ e8 p7 @/ i
00:18:55.259 : :Chapter 03% C# ?. k% |, @: a5 a
00:27:37.990 : :Chapter 04
% P4 Y4 q, Z% l. l& K& ~3 l9 E  E00:37:48.057 : :Chapter 05
. C# d  R5 ?, m" @0 _$ T00:45:01.324 : :Chapter 060 T+ P  @" x! r3 n. v3 o
00:49:46.609 : :Chapter 07
5 k/ l& i! [! j; z0 v01:00:00.764 : :Chapter 08
5 ?: c* M4 |! t: @% L5 t01:04:55.850 : :Chapter 09
5 j% D4 M3 S# e- a. k01:11:32.455 : :Chapter 10
0 y1 \6 q( k$ T( T/ D) a01:19:45.531 : :Chapter 111 t' P9 s' z1 c
01:27:59.274 : :Chapter 12

6 t( L( }; a% U2 D0 v& }% D# Z

/ K4 V- K9 r# L3 ^5 ?; H& _蓝光高清网提示您  点击下方附件名称  马上开始下载* A2 a0 g8 M( u" o. r9 _# }
. x; i1 I4 Q% g7 R6 p: o( Z

" f, p' }% U4 k" [, ]Miasto duchów/幽灵之城4k City.of.Ghosts.2017.2160p.AMZN.WEB-DL.x265.8bit.SDR.DTS-HD.MA.5.1.纪录片电影下载. Z3 M  \+ D+ y4 w6 M' O" s, p
, l6 v) l! K, C: e+ @5 p
幽灵之城4k City.of.Ghosts.2017.2160p.AMZN.WEB-DL.x265.8bit.SDR.DTS-HD.MA.5.1【11.07 GB】
3 ~  E2 Z1 P7 y( T8 T( d 幽灵之城4k City.of.Ghosts.2017.2160p.AMZN.WEB-DL.x265.8bit.SDR.DTS-HD.MA..torrent (文件大小:55.94 KB)

# `( A, z! C0 Y& q; u3 A/ d' V
6 k5 M, G+ U) M( A; Z/ T
幽灵之城中文字幕下载(来源字幕库 未校验)
4 [0 x# v* z) ?( L+ s9 n City.of.Ghosts.2017.DOCU.1080p.WEB-DL.DD5.1.H264-FGT.zip (文件大小:3.71 KB)
6 T/ r: w( s# L" w
( |+ R; H4 Y; n7 a8 h
加入蓝光高清网VIP会员  无限制下载本站所有资源---点这里

资源下载、资源播放、字幕使用、无法下载等常见问题---点这里
回复

使用道具 举报

 

精彩评论3

正序浏览
周文 发表于 前天 15:42 | 显示全部楼层
 
太好啦&萬分感謝版主的無私發佈分享%
回复

使用道具 举报

 
feiyue 发表于 前天 22:44 | 显示全部楼层
 

# P9 J" W4 a* Q. c9 B+ h, p4 Z% `天天访问蓝光高清网  天天打卡  习惯了
回复

使用道具 举报

 
bengoben 发表于 昨天 23:39 | 显示全部楼层
 
% ]8 [8 }9 z# U8 R" ^
非常感谢蓝光高清网给大家的享乐4k,祝蓝光高清网越办越好!~~~
回复

使用道具 举报

 
您需要登录后才可以回帖 登录 | 立即注册

本版积分规则

0关注

2粉丝

93698帖子

  • 版块推荐
  • 百宝箱

电影推荐

更多+

热门电影

更多+

下载APP 签到更便捷

官方微信

手机APP

蓝光高清网

专注4k电影、4k视频、VR视频、高清电影、蓝光原盘资源

本站内容部分由用户自主分享和转载自互联网,转载目的在于传递更多信息,并不代表本网赞同其观点和对其真实性负责。

如有侵权、违反国家法律政策行为,请联系我们,我们会第一时间及时清除和处理!

举报反馈邮箱:lanniao@1080pro.net

Copyright   ©2019-2020  蓝光高清网    |网站地图