开通会员
全站资源畅享下载
4k原盘抢先下载
免高清币下载
会员用户组特权
开通会员
上传
收藏
首页
开启左侧

一代财富 4K.Generation.Wealth.2018.2160p.AMZN.WEB-DL.x265.8bit.SDR.DTS-HD.MA.5.1-4k 电影下载—9.35 GB

[复制链接]
蓝鸟 发表于 前天 11:40 | 显示全部楼层 |阅读模式 打印 上一主题 下一主题

一代财富(2018年上映)

主演劳伦·格林菲尔德 / 布莱特·伊斯顿·埃利斯 / Paris Cronin / Mijanou / Eddie
导演劳伦·格林菲尔德
类型记录 
地区美国 
片长106分钟
画质4K SDR 原盘
音轨DTS-HD.MA 5.1 
评分豆瓣7.6分
电影【一代财富】原盘信息
 

加入蓝光高清网,轻松下载最新4k资源

您需要 登录 才可以下载或查看,没有帐号?立即注册

x
简       介       - R" u' D0 S, `7 e( V& S. u% N
& L' l, V& D% Q0 \4 S+ c
  该片跨越25年拍摄而成,深入探讨我们集体对于财富和名气的迷恋与追求。
- I7 _" @1 O' Z) A! o! F; f# w" c( Y0 S" @& V$ Y. n. [
6 Y0 W9 e6 V, q' l
影片参数
" \# A! z5 Q8 U3 I
财富世代/一代财富4K.Generation.Wealth.2018.2160p.AMZN.WEB-DL.x265.8bit.SDR.DTS-HD.MA.5.1-4k电影信息, e" D- E( ~% G6 u1 v& s7 O
Video( K( I3 U; M0 b6 T
ID : 1! ^3 ^1 h" Z5 @* L
Format : HEVC7 a' W* a- T& S. ~
Format/Info : High Efficiency Video Coding; N! V  R2 ~/ g/ s
Format profile : Main@L5@Main
4 I' D* E: e# |4 MCodec ID : V_MPEGH/ISO/HEVC2 E$ a8 Y5 c- m+ U+ J2 ~
Duration : 1 h 46 min
9 p! R1 ?( \& ^" I$ PBit rate : 8 646 kb/s
- M8 w, [( [7 `# z& OWidth : 3 840 pixels; @3 l$ I7 B" g# X- n& W: @
Height : 2 160 pixels- z8 |6 D: @# B" S
Display aspect ratio : 16:9& r6 f  g8 Z, c& G! T
Frame rate mode : Constant
( x- f& n* s2 |( D( uFrame rate : 23.976 (24000/1001) FPS
! N' m/ z8 A. {" P) I  jStandard : NTSC
1 M( ~6 h, T* H$ B- `1 A2 GColor space : YUV) M! ~: I9 j; O1 o
Chroma subsampling : 4:2:07 A( [3 j- C1 C  {
Bit depth : 8 bits, f, M# z0 M: P9 `) G3 x
Bits/(Pixel*Frame) : 0.0434 g$ [0 }9 f( P: _. q4 {3 W
Stream size : 6.40 GiB (68%)3 a4 P; v* }* p4 T) C+ U
Writing library : x265 0.0:[Linux][GCC 4.8.2][64 bit] 8bit+10bit+12bit
9 `8 u+ p9 l1 m) x/ @( d& i; y( WEncoding settings : cpuid=1173503 / frame-threads=2 / wpp / no-pmode / no-pme / psnr / ssim / log-level=2 / csvfn=/apollo/env/YoshiEncodingWorkflowActivitiesLinuxEncoding/var/tmp/2087941741/21a4c578-4b1c-4955-8452-66737fa860c4/15f2faed-8df4-4714-bd7a-819e04efbac3_video_2160p_15000kbps.csv / csv-log-level=2 / input-csp=1 / input-res=3840x2160 / interlace=0 / total-frames=0 / level-idc=50 / high-tier=1 / uhd-bd=0 / ref=5 / no-allow-non-conformance / no-repeat-headers / annexb / no-aud / no-hrd / info / hash=0 / no-temporal-layers / no-open-gop / min-keyint=61 / keyint=120 / bframes=8 / b-adapt=2 / b-pyramid / bframe-bias=0 / rc-lookahead=120 / lookahead-slices=4 / scenecut=0 / no-intra-refresh / ctu=64 / min-cu-size=8 / rect / amp / max-tu-size=32 / tu-inter-depth=4 / tu-intra-depth=4 / limit-tu=4 / rdoq-level=2 / dynamic-rd=0.00 / no-ssim-rd / signhide / tskip / nr-intra=100 / nr-inter=600 / no-constrained-intra / strong-intra-smoothing / max-merge=3 / limit-refs=3 / limit-modes / me=3 / subme=3 / merange=57 / temporal-mvp / weightp / weightb / no-analyze-src-pics / deblock=0:0 / no-sao / no-sao-non-deblock / rd=4 / no-early-skip / no-rskip / no-fast-intra / tskip-fast / no-cu-lossless / b-intra / rdpenalty=0 / psy-rd=4.00 / psy-rdoq=10.00 / no-rd-refine / analysis-reuse-mode=0 / no-lossless / cbqpoffs=0 / crqpoffs=0 / rc=crf / crf=25.0 / qcomp=0.60 / qpstep=1 / stats-write=0 / stats-read=0 / vbv-maxrate=15000 / vbv-bufsize=20000 / vbv-init=0.9 / crf-max=0.0 / crf-min=0.0 / ipratio=1.10 / pbratio=1.00 / aq-mode=0 / aq-strength=1.50 / no-cutree / zone-count=0 / no-strict-cbr / qg-size=32 / rc-grain / qpmax=69 / qpmin=0 / const-vbv / sar=1 / overscan=0 / videoformat=2 / range=0 / colorprim=1 / transfer=1 / colormatrix=1 / chromaloc=0 / display-window=0 / max-cll=0,0 / min-luma=0 / max-luma=255 / log2-max-poc-lsb=8 / vui-timing-info / vui-hrd-info / slices=1 / opt-qp-pps / opt-ref-list-length-pps / no-multi-pass-opt-rps / scenecut-bias=0.05 / no-opt-cu-delta-qp / no-aq-motion / no-hdr / no-hdr-opt / no-dhdr10-opt / analysis-reuse-level=5 / scale-factor=0 / refine-intra=0 / refine-inter=0 / refine-mv=0 / no-limit-sao / ctu-info=0
0 M$ U/ @6 Q8 F8 rDefault : Yes8 m9 _! E; z- g3 o7 B7 J
Forced : No# u) {! G0 z( R" A7 I
Color range : Limited( _# V7 e( M2 R+ a  h+ r/ M( z
Color primaries : BT.709
2 r8 O' i$ I: x; k7 f6 ]# W1 _Transfer characteristics : BT.709
8 H/ D! z, C& N: F2 t0 U8 _Matrix coefficients : BT.709
' ?4 f; o4 C& n& G2 k& E8 [# h5 e. r' m+ H9 G! K
: L5 V% S/ X. A( j
Audio #1
. l- e3 c2 C3 N1 z, F6 k# tID : 2
/ s! x- v1 V; T. m0 f6 o! P) sFormat : DTS XLL( I1 s6 R; e4 d' Q
Format/Info : Digital Theater Systems& |# B0 ^& @( ~/ Q1 C. o3 t0 b
Commercial name : DTS-HD Master Audio
4 f  c4 L, `# F0 j& p, K; SCodec ID : A_DTS
5 ?$ i' Y; c9 N* I, _2 [Duration : 1 h 46 min% C) l; Q' d; _
Bit rate mode : Variable
) Y; j/ K1 F& m, B( N1 X1 ]Bit rate : 3 333 kb/s% d% Y' x+ ~- D, u# s! D3 S* ?
Channel(s) : 6 channels/ V0 {2 R; s2 t3 W& ?
Channel layout : C L R Ls Rs LFE8 T0 q' @9 L8 N! F3 q& S, K
Sampling rate : 48.0 kHz
1 m. o: A( a7 ^# R4 m* hFrame rate : 93.750 FPS (512 SPF)( _% L8 I3 ]' v0 A) Y8 B6 l' I
Bit depth : 24 bits
: ]6 G3 R0 j* O! hCompression mode : Lossless
; l8 l6 `) o: h8 W/ T. y& X/ Q2 ?Delay relative to video : 3 ms
) b( _5 @8 _1 dStream size : 2.47 GiB (26%): V* e6 [+ _, Y6 |, N/ L
Title : DTS-HD MA 5.1) K5 f  S3 y* d' ~; L
Language : English6 U! h; T% v! U% V: O/ L, H& h+ C
Default : Yes
1 P" e% z4 v; K. L1 z/ ^Forced : No
3 f$ l3 A) x) d! R  u8 K7 Z
5 S0 f5 T8 t0 D- {

! _- {* L" ?# g) ~. {Audio #2' G3 R8 z5 g1 G; ]4 g5 ]
ID : 3
2 Q: e# |6 d+ yFormat : E-AC-3
7 o" T5 t* s% `5 ]5 RFormat/Info : Enhanced AC-3
% N0 N  T4 Y* Q3 xCommercial name : Dolby Digital Plus* T  C8 U1 G! a3 @7 ^
Codec ID : A_EAC3! k$ Z; ]) }' x! [
Duration : 1 h 46 min1 W, t! E) y" i
Bit rate mode : Constant
' M* i% u. j7 b$ f+ ^Bit rate : 640 kb/s! ?5 Y7 D7 K7 U; |/ V0 T, e' F: v
Channel(s) : 6 channels
' r( x: y! b3 f6 D* e: C6 {8 W+ ]Channel layout : L R C LFE Ls Rs- ^8 {0 |# C" M  |' @* J9 o
Sampling rate : 48.0 kHz  b- F4 H+ E! @- v$ A6 |% e5 T
Frame rate : 31.250 FPS (1536 SPF)! ~% q3 i7 }  X2 ?
Compression mode : Lossy
; [. t+ G$ ?7 jStream size : 485 MiB (5%)
$ A& }+ b. `( x6 R- W4 pTitle : DDP 5.1; {9 Z' F& A; Y4 P
Language : English! P% O; w5 T8 _) q5 _
Service kind : Complete Main$ @. ~; U- `$ C9 e, X/ J
Default : No# L7 g% w- f$ s0 I' V9 g" H2 n, c- U
Forced : No
9 m, c7 x; k2 i$ _& F0 }' t

, k( J7 R" Y( N) b& e- h7 u蓝光高清网提示您  点击下方附件名称  马上开始下载
' \% q1 O% _) v5 f) s
; m2 s% N8 `0 Q; a. }- i: H
7 |5 G  d8 E( G0 @0 Q6 a5 |
财富世代/一代财富4K.Generation.Wealth.2018.2160p.AMZN.WEB-DL.x265.8bit.SDR.DTS-HD.MA.5.1-4K电影下载9 N$ m1 x. u" I$ I0 Y4 J9 x! x6 K

1 N( M; y- R- k4 |一代财富 4K.Generation.Wealth.2018.2160p.AMZN.WEB-DL.x265.8bit.SDR.DTS-HD.MA.5.1【4K SDR 9.35 GB】
2 w" c1 Y, m5 H% G 一代财富4K.Generation.Wealth.2018.2160p.AMZN.WEB-DL.x265.8bit.SDR.DTS-HD..torrent (文件大小:47.35 KB)
加入蓝光高清网VIP会员  无限制下载本站所有资源---点这里

资源下载、资源播放、字幕使用、无法下载等常见问题---点这里
回复

使用道具 举报

 

精彩评论2

正序浏览
gdlmxia 发表于 前天 12:01 | 显示全部楼层
 
太好啦&萬分感謝版主的無私發佈分享%
回复

使用道具 举报

 
yuzhong000 发表于 18 小时前 | 显示全部楼层
 
要来下这个了
回复

使用道具 举报

 
您需要登录后才可以回帖 登录 | 立即注册

本版积分规则

0关注

2粉丝

93698帖子

  • 版块推荐
  • 百宝箱

电影推荐

更多+

热门电影

更多+

下载APP 签到更便捷

官方微信

手机APP

蓝光高清网

专注4k电影、4k视频、VR视频、高清电影、蓝光原盘资源

本站内容部分由用户自主分享和转载自互联网,转载目的在于传递更多信息,并不代表本网赞同其观点和对其真实性负责。

如有侵权、违反国家法律政策行为,请联系我们,我们会第一时间及时清除和处理!

举报反馈邮箱:lanniao@1080pro.net

Copyright   ©2019-2020  蓝光高清网    |网站地图