游客您好
第三方账号登陆
  • 客服在线时间

    周一至周五 8:30-17:30
  • 烧友之家APP

    随时掌握烧友资讯

  • 扫描二维码

    关注微信公众号

推荐阅读
蓝鸟
未知星球 | 未知职业
  • 关注0
  • 粉丝2
  • 帖子96539
精选帖子
开启左侧

一代财富 4K.Generation.Wealth.2018.2160p.AMZN.WEB-DL.x265.8bit.SDR.DTS-HD.MA.5.1-4k 电影下载—9.35 GB

[复制链接]
蓝鸟 发表于 2021-2-23 11:40:40 | 显示全部楼层 |阅读模式 打印 上一主题 下一主题
一代财富
上映时间:2018年
类型:纪录 
地区:美国 
导演:劳伦·格林菲尔德
主演:劳伦·格林菲尔德 / 布莱特·伊斯顿·埃利斯 / Paris Cronin / Mijanou / Eddie
画质标准:4K SDR  封装音轨:DTS-HD.MA 5.1 
豆瓣评分:7.6分
简       介       
5 m: H& }7 K3 Q
* V( D! D, d& ]1 j7 T  该片跨越25年拍摄而成,深入探讨我们集体对于财富和名气的迷恋与追求。  A* [" e$ Q0 L9 v

+ A- l( u0 \' s. k$ l

9 d* U  ?6 w& F影片参数7 ?' I& }- e% G' j
财富世代/一代财富4K.Generation.Wealth.2018.2160p.AMZN.WEB-DL.x265.8bit.SDR.DTS-HD.MA.5.1-4k电影信息
5 J/ y/ {* N7 v/ W5 r  hVideo
2 p7 R7 x: }$ n) a0 a- b: hID : 1# @" V8 |! q- [" C( ^1 J
Format : HEVC
: ^, k$ Y( l6 T) N& {Format/Info : High Efficiency Video Coding5 W: @7 F  S1 i, p: K
Format profile : Main@L5@Main7 f! b! P5 o' W0 P
Codec ID : V_MPEGH/ISO/HEVC! J1 B3 e+ ^/ h
Duration : 1 h 46 min9 F6 Y. k- ~' p3 V
Bit rate : 8 646 kb/s
5 n$ E. O$ D. j3 o+ Y* uWidth : 3 840 pixels
5 }# K( y; X+ n* ?* n( oHeight : 2 160 pixels
4 Z/ s2 S7 ~" G4 lDisplay aspect ratio : 16:9
' q% T* n5 I$ F( WFrame rate mode : Constant9 M" q9 J1 x* E+ ?0 S
Frame rate : 23.976 (24000/1001) FPS
5 ]0 o% g9 s; ~5 {8 z# L( i) _Standard : NTSC
) N3 |; S. Q. f, r: ^0 ^Color space : YUV8 L& {" V4 R9 ^; Z) u+ G
Chroma subsampling : 4:2:0* D$ x: j/ f8 _+ D
Bit depth : 8 bits
' K0 g' T6 W, V7 i9 XBits/(Pixel*Frame) : 0.043
4 w  y5 i9 }. H0 s0 T& R: a0 GStream size : 6.40 GiB (68%)
/ z* D/ \4 d5 Y* i! i$ i! |Writing library : x265 0.0:[Linux][GCC 4.8.2][64 bit] 8bit+10bit+12bit
5 N2 |$ F- r5 d( E" ^. EEncoding settings : cpuid=1173503 / frame-threads=2 / wpp / no-pmode / no-pme / psnr / ssim / log-level=2 / csvfn=/apollo/env/YoshiEncodingWorkflowActivitiesLinuxEncoding/var/tmp/2087941741/21a4c578-4b1c-4955-8452-66737fa860c4/15f2faed-8df4-4714-bd7a-819e04efbac3_video_2160p_15000kbps.csv / csv-log-level=2 / input-csp=1 / input-res=3840x2160 / interlace=0 / total-frames=0 / level-idc=50 / high-tier=1 / uhd-bd=0 / ref=5 / no-allow-non-conformance / no-repeat-headers / annexb / no-aud / no-hrd / info / hash=0 / no-temporal-layers / no-open-gop / min-keyint=61 / keyint=120 / bframes=8 / b-adapt=2 / b-pyramid / bframe-bias=0 / rc-lookahead=120 / lookahead-slices=4 / scenecut=0 / no-intra-refresh / ctu=64 / min-cu-size=8 / rect / amp / max-tu-size=32 / tu-inter-depth=4 / tu-intra-depth=4 / limit-tu=4 / rdoq-level=2 / dynamic-rd=0.00 / no-ssim-rd / signhide / tskip / nr-intra=100 / nr-inter=600 / no-constrained-intra / strong-intra-smoothing / max-merge=3 / limit-refs=3 / limit-modes / me=3 / subme=3 / merange=57 / temporal-mvp / weightp / weightb / no-analyze-src-pics / deblock=0:0 / no-sao / no-sao-non-deblock / rd=4 / no-early-skip / no-rskip / no-fast-intra / tskip-fast / no-cu-lossless / b-intra / rdpenalty=0 / psy-rd=4.00 / psy-rdoq=10.00 / no-rd-refine / analysis-reuse-mode=0 / no-lossless / cbqpoffs=0 / crqpoffs=0 / rc=crf / crf=25.0 / qcomp=0.60 / qpstep=1 / stats-write=0 / stats-read=0 / vbv-maxrate=15000 / vbv-bufsize=20000 / vbv-init=0.9 / crf-max=0.0 / crf-min=0.0 / ipratio=1.10 / pbratio=1.00 / aq-mode=0 / aq-strength=1.50 / no-cutree / zone-count=0 / no-strict-cbr / qg-size=32 / rc-grain / qpmax=69 / qpmin=0 / const-vbv / sar=1 / overscan=0 / videoformat=2 / range=0 / colorprim=1 / transfer=1 / colormatrix=1 / chromaloc=0 / display-window=0 / max-cll=0,0 / min-luma=0 / max-luma=255 / log2-max-poc-lsb=8 / vui-timing-info / vui-hrd-info / slices=1 / opt-qp-pps / opt-ref-list-length-pps / no-multi-pass-opt-rps / scenecut-bias=0.05 / no-opt-cu-delta-qp / no-aq-motion / no-hdr / no-hdr-opt / no-dhdr10-opt / analysis-reuse-level=5 / scale-factor=0 / refine-intra=0 / refine-inter=0 / refine-mv=0 / no-limit-sao / ctu-info=0! ^* @) I5 M# |  e6 h8 F% [
Default : Yes- C) O* I. S8 U! |$ u  Y  T) ^
Forced : No2 S/ d# X) G" h6 r& D+ s7 p" e
Color range : Limited
- p( J4 [1 w  ^Color primaries : BT.709$ ^9 D& J* F: _. y9 H. S9 D( `
Transfer characteristics : BT.709* Z/ \- l% A2 U
Matrix coefficients : BT.709
& d! l7 A' [3 _0 j8 r( L( |/ W. [( G, W
2 W; e( G3 d! X1 t6 j  N1 p
Audio #1, N5 @; o7 a$ Z& w
ID : 2
5 E# J/ j5 c" ~/ S' q: GFormat : DTS XLL" u# j1 U, J( ^: g' {0 P
Format/Info : Digital Theater Systems
$ q5 o2 B0 M" {5 y. A7 C7 XCommercial name : DTS-HD Master Audio, _2 f, W) R( J. A: ]- a+ I8 d
Codec ID : A_DTS1 `1 v* s, t$ c0 E% b+ ]. z
Duration : 1 h 46 min
, F! V6 B* h2 g' ]4 c$ i) ?8 lBit rate mode : Variable
1 {: ^  Y, y- n8 f& g. Y' QBit rate : 3 333 kb/s% ~) G6 n" @7 d# E
Channel(s) : 6 channels- @7 F/ ?$ J# i5 {
Channel layout : C L R Ls Rs LFE
  F' e" l5 T, O. Z) g$ r) y4 ESampling rate : 48.0 kHz/ c5 W* @( s# ~; r6 K
Frame rate : 93.750 FPS (512 SPF)) e6 r& q& z) O1 G
Bit depth : 24 bits# w- {# m9 R* ?0 A  P
Compression mode : Lossless
* F6 z1 C0 G" \  yDelay relative to video : 3 ms7 d% G8 j+ t7 a6 F' [
Stream size : 2.47 GiB (26%)# F  n+ [- d$ Z" ^5 V0 c
Title : DTS-HD MA 5.1; e& X2 v/ ]- j7 ~
Language : English3 e  i* o0 M& K/ g$ d) N! z$ S
Default : Yes+ Z, L# P$ F5 O: [$ A
Forced : No# ~( \+ m& H6 U0 ~/ i- r% Y. F* C

4 m2 i4 G; ?8 Q& j
# x. ^6 H7 w6 g' M. U3 V
Audio #2
" x! @! _0 L5 o  xID : 3+ \+ Y( L, B! ~# q5 E& C; z8 ]3 m
Format : E-AC-3
5 `& C9 ~, e& V" D5 v0 yFormat/Info : Enhanced AC-3
' t9 U, @) i. o8 A5 s) z. dCommercial name : Dolby Digital Plus
" T; N/ C  A5 _# i/ t) ZCodec ID : A_EAC3
0 h! t% i1 m& P; Y; m+ z/ RDuration : 1 h 46 min
' s# w; M* {  wBit rate mode : Constant. W7 X' h. f" l3 g  X
Bit rate : 640 kb/s, y. h0 X& n  u! [
Channel(s) : 6 channels
  v: a# z* z2 u# iChannel layout : L R C LFE Ls Rs
1 {3 I4 y" B) Q* wSampling rate : 48.0 kHz
' ~! m# z% P( i* j7 c# n$ Z- [Frame rate : 31.250 FPS (1536 SPF)
  ~3 {0 }6 v2 x  {Compression mode : Lossy
7 N. m8 C' E1 C6 q" u( pStream size : 485 MiB (5%)
& \2 w2 u. \8 Q% J* V  {  gTitle : DDP 5.1. Z- I, c  }* M. K/ O2 o
Language : English/ x+ U. U% ^5 O0 w: b7 ~8 E: m
Service kind : Complete Main
1 p9 ~# U. ~4 t- P1 O5 q# CDefault : No7 I  }3 p0 Q! M( ?0 ?
Forced : No
6 u' k/ m# d- i  X

5 `# z) e6 R5 P: m  [+ U蓝光高清网提示您  点击下方附件名称  马上开始下载4 V6 `, E* K4 ~4 Y2 `0 N
7 O* a, @4 R+ @" h

4 |' [3 E/ s( N" I' O7 x# P1 k财富世代/一代财富4K.Generation.Wealth.2018.2160p.AMZN.WEB-DL.x265.8bit.SDR.DTS-HD.MA.5.1-4K电影下载
1 H: s4 I6 C; ~' s( ~  V: k. B3 m7 R
一代财富 4K.Generation.Wealth.2018.2160p.AMZN.WEB-DL.x265.8bit.SDR.DTS-HD.MA.5.1【4K SDR 9.35 GB】% Z' O7 G! _2 ?' p
一代财富4K.Generation.Wealth.2018.2160p.AMZN.WEB-DL.x265.8bit.SDR.DTS-HD..torrent (大小:47.35 KB) , g1 n% j' S/ D' U8 J
5 T6 F) ]4 I0 X% \7 S
加入蓝光高清网VIP会员  无限制下载本站所有资源---点这里

资源下载、资源播放、字幕使用、无法下载等常见问题---点这里
回复

使用道具 举报

精彩评论2

gdlmxia 发表于 2021-2-23 12:01:58 | 显示全部楼层
太好啦&萬分感謝版主的無私發佈分享%
回复 支持 反对

使用道具 举报

yuzhong000 发表于 2021-2-25 00:55:10 | 显示全部楼层
要来下这个了
回复 支持 反对

使用道具 举报

您需要登录后才可以回帖 登录 | 立即注册

本版积分规则

烧友之家(蓝光高清网)本站内容部分由用户自主分享和转载自互联网,转载目的在于传递更多信息,并不代表本网赞同其观点和对其真实性负责。 如有侵权、违反国家法律政策行为,请联系我们,我们会第一时间及时清除和处理!
关注我们
  • 官方微信公众号
  • 扫码下载官方APP

X3.4 Licensed© 2001-2013 蓝光高清网 烧友之家APP |网站地图