开通会员
全站资源畅享下载
4k原盘抢先下载
免高清币下载
会员用户组特权
开通会员
上传
收藏
首页
开启左侧

游戏之夜 4K.Game.Night.2018.2160p.WEB-DL.x265.8bit.SDR.DTS-HD.MA.5.1-4k电影下载—13.47 GB

[复制链接]
蓝鸟 发表于 前天 11:44 | 显示全部楼层 |阅读模式 打印 上一主题 下一主题

游戏之夜(2018年上映)

主演杰森·贝特曼 / 瑞秋·麦克亚当斯 / 凯尔·钱德勒 / 莎朗·豪根 / 比利·马格努森
导演约翰·弗朗西斯·戴利 / 乔纳森·M·戈尔茨坦
类型喜剧 犯罪 悬疑 
地区美国 
片长100分钟
画质4K SDR 原盘
音轨DTS-HD.MA 5.1 
评分豆瓣7.1分
电影【游戏之夜】原盘信息
 

加入蓝光高清网,轻松下载最新4k资源

您需要 登录 才可以下载或查看,没有帐号?立即注册

x
简       介
' N5 R; H6 m, i1 y/ A8 r3 j8 k- m  K( m/ ^" @
  马克思(贝特曼饰)的兄弟布鲁克斯(钱德勒饰)筹划“谋杀”派对后却遭绑架,马克思、安妮(麦克亚当斯饰)以为这只是一场游戏,但显然他们已陷入困境。
0 e$ H. x/ Q, [# T$ F& r5 W/ o+ p0 S8 o' F' a0 b
4 M/ D1 Y6 B; g" `
影片参数3 C9 r) N9 \2 J4 E) g' W" W
游戏夜杀必死(台) / 今晚玩救你(港)/游戏之夜4K.Game.Night.2018.2160p.WEB-DL.x265.8bit.SDR.DTS-HD.MA.5.1-4k电影信息
4 y2 l3 c7 ~' V+ m5 V; @Video+ ?8 b" K% {- f  z7 v, }
ID : 1; V% U+ U! I- U, a$ `% k
Format : HEVC
% Q5 B/ r) _7 O2 M2 ]Format/Info : High Efficiency Video Coding
# H3 R7 |9 U7 V( V9 g7 h7 _Format profile : Main@L5@Main
6 P8 F# ~6 E! @  y7 {/ ACodec ID : V_MPEGH/ISO/HEVC6 k# @- F0 h% I6 W  {
Duration : 1 h 40 min2 Z) [" i$ C( k8 g! g
Bit rate : 15.0 Mb/s
- h2 _7 H" O1 M* o2 M' C& tWidth : 3 840 pixels0 L5 t/ u: @7 L! D
Height : 2 160 pixels4 _, U+ Z/ |% b1 G) `, T$ r9 |0 E! U
Display aspect ratio : 16:9
( [+ K6 x$ d5 J. O7 e" @Frame rate mode : Constant
5 ]* F; W1 @( U1 R7 m1 W4 N, jFrame rate : 23.976 (24000/1001) FPS( ]/ g( j% O$ y2 J" e' P
Original frame rate : 23.976 (23976/1000) FPS
7 Z" _6 L8 q) B! A# aColor space : YUV
2 x9 {# ]4 U, p$ Y6 n. z0 U* e* a, j# gChroma subsampling : 4:2:03 D2 N* i6 n# ]9 h
Bit depth : 8 bits
# m: L8 i( M# t) c  H$ OBits/(Pixel*Frame) : 0.076' c' A& B0 E3 n6 V8 N
Stream size : 10.5 GiB (78%)
# I1 Z# H& R( z# q2 d9 N, B% TWriting library : x265 2.7+14-d7c26df32fae:[Linux][GCC 4.8.5][64 bit][noasm] 8bit. c$ `. T3 l/ |# D7 e3 X* v! |* m
Encoding settings : cpuid=0 / frame-threads=6 / wpp / no-pmode / no-pme / no-psnr / no-ssim / log-level=2 / input-csp=1 / input-res=3840x2160 / interlace=0 / total-frames=0 / level-idc=0 / high-tier=1 / uhd-bd=0 / ref=3 / no-allow-non-conformance / no-repeat-headers / annexb / no-aud / no-hrd / info / hash=0 / no-temporal-layers / no-open-gop / min-keyint=4 / keyint=48 / gop-lookahead=0 / bframes=4 / b-adapt=2 / b-pyramid / bframe-bias=0 / rc-lookahead=80 / lookahead-slices=4 / scenecut=0 / radl=0 / no-intra-refresh / ctu=64 / min-cu-size=8 / rect / no-amp / max-tu-size=32 / tu-inter-depth=1 / tu-intra-depth=1 / limit-tu=0 / rdoq-level=2 / dynamic-rd=0.00 / no-ssim-rd / signhide / no-tskip / nr-intra=0 / nr-inter=0 / no-constrained-intra / strong-intra-smoothing / max-merge=3 / limit-refs=3 / limit-modes / me=2 / subme=3 / merange=64 / temporal-mvp / weightp / no-weightb / no-analyze-src-pics / deblock=0:0 / no-sao / no-sao-non-deblock / rd=4 / no-early-skip / no-rskip / no-fast-intra / no-tskip-fast / no-cu-lossless / no-b-intra / no-splitrd-skip / rdpenalty=0 / psy-rd=4.00 / psy-rdoq=10.00 / no-rd-refine / no-lossless / cbqpoffs=0 / crqpoffs=0 / rc=abr / bitrate=15000 / qcomp=0.60 / qpstep=1 / stats-write=0 / stats-read=0 / vbv-maxrate=22500 / vbv-bufsize=22500 / vbv-init=0.9 / ipratio=1.10 / pbratio=1.00 / aq-mode=0 / aq-strength=0.00 / no-cutree / zone-count=0 / no-strict-cbr / qg-size=32 / rc-grain / qpmax=69 / qpmin=0 / const-vbv / sar=1 / overscan=0 / videoformat=5 / range=0 / colorprim=1 / transfer=1 / colormatrix=1 / chromaloc=0 / display-window=0 / max-cll=0,0 / min-luma=0 / max-luma=255 / log2-max-poc-lsb=8 / vui-timing-info / vui-hrd-info / slices=1 / no-opt-qp-pps / no-opt-ref-list-length-pps / no-multi-pass-opt-rps / scenecut-bias=0.05 / no-opt-cu-delta-qp / no-aq-motion / no-hdr / no-hdr-opt / no-dhdr10-opt / no-idr-recovery-sei / analysis-reuse-level=5 / scale-factor=0 / refine-intra=0 / refine-inter=0 / refine-mv=0 / no-limit-sao / ctu-info=0 / no-lowpass-dct / refine-mv-type=0 / copy-pic=1 / max-ausize-factor=1.0 / no-dynamic-refine
# h8 Q  L  H* X/ }) |: |Default : Yes
7 N/ s7 D# J* f; B5 Q* J; lForced : No
) c/ a# r7 ]! {0 _# GColor range : Limited; k% W8 K4 F( s' c
Color primaries : BT.709& Q2 G0 R- J- {
Transfer characteristics : BT.7096 x" t7 h: H% v, O* r4 u
Matrix coefficients : BT.709
" M2 t! ~+ W" `8 `% U& q, U
; V0 f: l5 f2 f
0 d5 D6 P) Y, l# d- T
Audio #1
0 o6 k; |" N0 s- u! v; |: o* DID : 29 [. `0 |3 J" ^: P) K/ J- T0 g) H" ^
Format : DTS XLL% r; E+ `, o& l
Format/Info : Digital Theater Systems/ _$ U4 ~+ k  @) W) V/ u5 f% T$ R
Commercial name : DTS-HD Master Audio
0 @5 D4 \! F9 G6 m% q+ H- lCodec ID : A_DTS
# l1 n) U$ w, i( q$ c3 ~% f/ HDuration : 1 h 40 min
) i% J5 X$ T) a+ a/ DBit rate mode : Variable9 r/ A  w! u  `" ^; ^. O
Bit rate : 3 596 kb/s4 q+ e# A5 V1 W( ~9 y8 X6 P& L
Channel(s) : 6 channels" z% V% W9 _$ z( B
Channel layout : C L R Ls Rs LFE' }) f/ Z0 K5 ]6 M
Sampling rate : 48.0 kHz
8 t3 g# b3 G( V8 Y7 L* J9 MFrame rate : 93.750 FPS (512 SPF)" T: q, V6 T0 e
Bit depth : 24 bits# m- a4 f( G9 R- u
Compression mode : Lossless0 w6 C  Y4 I, P* E4 s
Delay relative to video : 1 ms
, Q) G; e7 n+ k; |, P# ~1 y1 t3 i. K! ~# LStream size : 2.51 GiB (19%), o! R5 z/ r1 i/ l% w) Z
Title : DTS-HD MA 5.1
9 H0 P1 p4 _4 h1 V# k# KLanguage : English( e8 y9 q# }, J: h8 R3 E( S8 Q
Default : Yes
6 c6 T0 x" z# MForced : No& W, H, J& p0 N4 ]: s
, ^+ f2 O; Y7 U' }2 d  h
' E3 R% |' G' X
Audio #26 R; I1 m5 ?3 I8 y; }( Z# J) u
ID : 3  ~5 t; B: J2 I. D8 v
Format : AC-35 w$ X& f/ A  t  Z# L& b
Format/Info : Audio Coding 3
" Q8 Y9 Z) W$ \6 |8 f9 GCommercial name : Dolby Digital
9 D' |9 z- O7 Z0 @! \0 iCodec ID : A_AC3
* A( \8 T% [) c  M, lDuration : 1 h 40 min
) p8 |6 ?$ e% O9 n  q0 U0 rBit rate mode : Constant
0 {; u+ A9 {' c1 ~  {3 y. c! c: QBit rate : 640 kb/s
& A' x, x) i/ @2 {" O' {Channel(s) : 6 channels
( [$ G2 d1 S- vChannel layout : L R C LFE Ls Rs
& g" l5 r# K. b7 o% CSampling rate : 48.0 kHz
3 M. ]3 f3 |0 s# q% `- @Frame rate : 31.250 FPS (1536 SPF)9 L0 I# M' H* c; p7 [
Compression mode : Lossy
! o, G* T! _! U( LStream size : 458 MiB (3%)
& W8 _3 l' O. F  q1 M- }$ `Title : DD 5.1
  h# A( M; m6 r% T1 M' j9 s; r: zLanguage : English
1 X* Q1 N( n* e' eService kind : Complete Main
. S% E, q/ X' C5 YDefault : No1 e3 E$ \" j$ B0 v3 S$ I
Forced : No( H! v1 P5 }' Z# ~' e
! C- k  A- s% t

* i  k  R. j, ]# m- cText, {. T$ P  ]. {) [3 p1 T
ID : 4
- R& ~1 t: ]- }0 q1 {  I: ?9 C, {Format : UTF-8
1 g% a9 n+ z; ?7 F$ tCodec ID : S_TEXT/UTF8& y* d& a6 {/ Y9 Q# ~. p& A$ z
Codec ID/Info : UTF-8 Plain Text
4 w3 W% A  k5 {9 v; i0 r) dDuration : 1 h 39 min3 M0 g7 g  J3 S
Bit rate : 99 b/s
% a4 ~; O; V* P0 YCount of elements : 2206- @; O4 Q! _' a2 l: T
Stream size : 72.1 KiB (0%)
- Y- I" K! n( g$ P: D; t+ `7 D1 OTitle : English-SRT' H3 M# Y  d) r0 O# O+ i3 b, u
Language : English9 U/ k# T7 L" M, n
Default : Yes- U( j& ]' Q: ~+ M. R" Y/ U- t
Forced : No
6 A5 @! s8 q8 Z' [$ D$ Y6 N+ \9 _! u3 K' k( h# }/ ^
, C" s  J7 Y- V  x
Menu2 p% w* s! M6 ]5 \
00:00:00.000 : en:Chapter 01$ E0 f2 Z- s) S! }! G6 [
00:10:33.675 : en:Chapter 02: B6 T- L3 C, F4 C" k' _1 `+ Y8 z
00:18:35.698 : en:Chapter 03) M1 r' ]  v$ Y
00:32:23.442 : en:Chapter 04" E- k" L: {- q; g/ [$ R
00:42:38.890 : en:Chapter 05
5 {8 H# P- l6 g. w$ _& s: Y2 X00:52:25.935 : en:Chapter 06, z& g5 |/ l; L3 ~. D
01:01:59.883 : en:Chapter 07, ]% J, l1 I6 ]! E
01:11:49.514 : en:Chapter 08
/ N# Y, E* g7 d9 _& m01:22:35.325 : en:Chapter 09
# S: m; a5 ~# R4 C01:32:53.485 : en:Chapter 10
: @5 H: S, x3 v9 p7 \( h

' v. [# d/ E9 X2 Y* X: o9 E/ b* Y2 ^蓝光高清网提示您  点击下方附件名称  马上开始下载5 v4 b+ o: y4 t$ _4 j  @% h' h" t
4 m* M  }5 w, E1 n+ y: c) O

# I4 X; v1 I) c2 @游戏夜杀必死(台) / 今晚玩救你(港)/游戏之夜4K.Game.Night.2018.2160p.WEB-DL.x265.8bit.SDR.DTS-HD.MA.5.1-4K电影下载6 H2 s( [( w/ _; e' [
6 F, y9 I) c9 A! M3 ^  _2 ~* l$ y
游戏之夜4K.Game.Night.2018.2160p.WEB-DL.x265.8bit.SDR.DTS-HD.MA.5.1【4K SDR 13.47 GB】
* W$ C' Y% p- Z8 X) X3 J 游戏之夜4K.Game.Night.2018.2160p.WEB-DL.x265.8bit.SDR.DTS-HD.MA.5.1-SWTYBLZ.torrent (文件大小:67.91 KB)
  l  L; x6 t+ L+ ^
& F! O+ v# W* j3 L
游戏之夜中文字幕下载
% h  A% v) e4 Y: z Game.Night.2018.1080p.BluRay.x264-GECKOS.Cht@WindowsSpy_20180515122343.rar (文件大小:50.88 KB)
% n+ a) H& V! L! a
  t- p7 N) {( i7 L
加入蓝光高清网VIP会员  无限制下载本站所有资源---点这里

资源下载、资源播放、字幕使用、无法下载等常见问题---点这里
回复

使用道具 举报

 

精彩评论4

正序浏览
bengoben 发表于 前天 20:18 | 显示全部楼层
 
  f# ]& c0 k# l) S# Y% X
祝蓝光高清网越办越红火。
回复

使用道具 举报

 
yuzhong000 发表于 18 小时前 | 显示全部楼层
 
谢楼主分享透
回复

使用道具 举报

 
ggang1 发表于 8 小时前 | 显示全部楼层
 
6 J: ^1 {) w% q8 a
天天访问蓝光高清网  天天打卡  习惯了
回复

使用道具 举报

 
Pimple 发表于 6 小时前 | 显示全部楼层
 
非常感谢蓝光高清网分享的各种知识和资源,祝蓝光高清网越来越好
回复

使用道具 举报

 
您需要登录后才可以回帖 登录 | 立即注册

本版积分规则

0关注

2粉丝

93698帖子

  • 版块推荐
  • 百宝箱

电影推荐

更多+

热门电影

更多+

下载APP 签到更便捷

官方微信

手机APP

蓝光高清网

专注4k电影、4k视频、VR视频、高清电影、蓝光原盘资源

本站内容部分由用户自主分享和转载自互联网,转载目的在于传递更多信息,并不代表本网赞同其观点和对其真实性负责。

如有侵权、违反国家法律政策行为,请联系我们,我们会第一时间及时清除和处理!

举报反馈邮箱:lanniao@1080pro.net

Copyright   ©2019-2020  蓝光高清网    |网站地图