游客您好
第三方账号登陆
  • 客服在线时间

    周一至周五 8:30-17:30
  • 烧友之家APP

    随时掌握烧友资讯

  • 扫描二维码

    关注微信公众号

推荐阅读
蓝鸟
未知星球 | 未知职业
  • 关注0
  • 粉丝2
  • 帖子96539
精选帖子
开启左侧

游戏之夜 4K.Game.Night.2018.2160p.WEB-DL.x265.8bit.SDR.DTS-HD.MA.5.1-4k电影下载—13.47 GB

[复制链接]
蓝鸟 发表于 2021-2-23 11:44:41 | 显示全部楼层 |阅读模式 打印 上一主题 下一主题
游戏之夜
上映时间:2018年
类型:喜剧 犯罪 悬疑 
地区:美国 
导演:约翰·弗朗西斯·戴利 / 乔纳森·M·戈尔茨坦
主演:杰森·贝特曼 / 瑞秋·麦克亚当斯 / 凯尔·钱德勒 / 莎朗·豪根 / 比利·马格努森
画质标准:4K SDR  封装音轨:DTS-HD.MA 5.1 
豆瓣评分:7.1分
简       介0 |: g7 {$ ]: A2 t; j) y( N

% q, Z+ y( \; `2 e7 \  马克思(贝特曼饰)的兄弟布鲁克斯(钱德勒饰)筹划“谋杀”派对后却遭绑架,马克思、安妮(麦克亚当斯饰)以为这只是一场游戏,但显然他们已陷入困境。
/ Y# n& @" ^( H" s7 I
; o, M  {1 Q+ W* E* C  a( W4 C% I

8 I4 R0 u4 V% ~4 j- P- A5 M. r影片参数
( J% d" y/ J) o- ?0 V
游戏夜杀必死(台) / 今晚玩救你(港)/游戏之夜4K.Game.Night.2018.2160p.WEB-DL.x265.8bit.SDR.DTS-HD.MA.5.1-4k电影信息7 A. Y) R% q7 D
Video
4 C3 g# D) T; sID : 1
' g3 ]# r: O- g2 o0 H/ w9 ZFormat : HEVC
! h$ w) L8 l+ a& [) T8 `5 r* `Format/Info : High Efficiency Video Coding, O# {6 L7 f" b- r6 z2 Y2 \
Format profile : Main@L5@Main8 Z# o$ i3 T( w# Y
Codec ID : V_MPEGH/ISO/HEVC' s! g% c" p" j) E
Duration : 1 h 40 min- N! Z) |: I, Q# n( h5 B2 z/ m
Bit rate : 15.0 Mb/s
8 `$ Y6 V& X! P/ {7 Z5 sWidth : 3 840 pixels2 f( q9 b! g0 z" H- M7 `
Height : 2 160 pixels
, V& K6 {% Q% [: {Display aspect ratio : 16:9
6 u4 k5 x  F, Y: aFrame rate mode : Constant
% ~: A2 R! J- |. _9 }Frame rate : 23.976 (24000/1001) FPS
; u; U; U3 g' D) iOriginal frame rate : 23.976 (23976/1000) FPS
& v1 U8 T0 p0 m+ h& ^) W, dColor space : YUV) x9 |, a8 C: l2 `* ]$ ]/ _
Chroma subsampling : 4:2:0
# l( ~6 e2 j  U! x, d0 |Bit depth : 8 bits1 p7 x7 C  d9 i  r
Bits/(Pixel*Frame) : 0.0767 W$ v9 Y. d, M$ {( k% e/ m- ]/ T  N
Stream size : 10.5 GiB (78%)/ w* v7 M* F. z: T+ ]' E
Writing library : x265 2.7+14-d7c26df32fae:[Linux][GCC 4.8.5][64 bit][noasm] 8bit0 y3 M1 G2 z9 K2 i# C) o6 G7 }
Encoding settings : cpuid=0 / frame-threads=6 / wpp / no-pmode / no-pme / no-psnr / no-ssim / log-level=2 / input-csp=1 / input-res=3840x2160 / interlace=0 / total-frames=0 / level-idc=0 / high-tier=1 / uhd-bd=0 / ref=3 / no-allow-non-conformance / no-repeat-headers / annexb / no-aud / no-hrd / info / hash=0 / no-temporal-layers / no-open-gop / min-keyint=4 / keyint=48 / gop-lookahead=0 / bframes=4 / b-adapt=2 / b-pyramid / bframe-bias=0 / rc-lookahead=80 / lookahead-slices=4 / scenecut=0 / radl=0 / no-intra-refresh / ctu=64 / min-cu-size=8 / rect / no-amp / max-tu-size=32 / tu-inter-depth=1 / tu-intra-depth=1 / limit-tu=0 / rdoq-level=2 / dynamic-rd=0.00 / no-ssim-rd / signhide / no-tskip / nr-intra=0 / nr-inter=0 / no-constrained-intra / strong-intra-smoothing / max-merge=3 / limit-refs=3 / limit-modes / me=2 / subme=3 / merange=64 / temporal-mvp / weightp / no-weightb / no-analyze-src-pics / deblock=0:0 / no-sao / no-sao-non-deblock / rd=4 / no-early-skip / no-rskip / no-fast-intra / no-tskip-fast / no-cu-lossless / no-b-intra / no-splitrd-skip / rdpenalty=0 / psy-rd=4.00 / psy-rdoq=10.00 / no-rd-refine / no-lossless / cbqpoffs=0 / crqpoffs=0 / rc=abr / bitrate=15000 / qcomp=0.60 / qpstep=1 / stats-write=0 / stats-read=0 / vbv-maxrate=22500 / vbv-bufsize=22500 / vbv-init=0.9 / ipratio=1.10 / pbratio=1.00 / aq-mode=0 / aq-strength=0.00 / no-cutree / zone-count=0 / no-strict-cbr / qg-size=32 / rc-grain / qpmax=69 / qpmin=0 / const-vbv / sar=1 / overscan=0 / videoformat=5 / range=0 / colorprim=1 / transfer=1 / colormatrix=1 / chromaloc=0 / display-window=0 / max-cll=0,0 / min-luma=0 / max-luma=255 / log2-max-poc-lsb=8 / vui-timing-info / vui-hrd-info / slices=1 / no-opt-qp-pps / no-opt-ref-list-length-pps / no-multi-pass-opt-rps / scenecut-bias=0.05 / no-opt-cu-delta-qp / no-aq-motion / no-hdr / no-hdr-opt / no-dhdr10-opt / no-idr-recovery-sei / analysis-reuse-level=5 / scale-factor=0 / refine-intra=0 / refine-inter=0 / refine-mv=0 / no-limit-sao / ctu-info=0 / no-lowpass-dct / refine-mv-type=0 / copy-pic=1 / max-ausize-factor=1.0 / no-dynamic-refine
# W& I5 G+ G# D! u3 p! rDefault : Yes
6 S0 M- _: t  `* F1 L, ZForced : No
' u' L$ p7 G9 E$ W' uColor range : Limited! m7 M$ L# e- o/ b! ^
Color primaries : BT.709
; V* X+ s; o+ q  tTransfer characteristics : BT.709
7 [9 H4 A: I6 C2 e# y% Y) CMatrix coefficients : BT.709
+ o4 d& b0 s: B: T
5 I  U4 n: `& A5 F' P: r* b

* t( \& I0 R# _4 `; x/ S" D5 D5 }9 bAudio #1% d$ \. V8 l+ f! t
ID : 2
& \5 L3 f* ?7 Y2 R- z4 o: @Format : DTS XLL1 g4 ?' l3 ~  s6 y
Format/Info : Digital Theater Systems! L  x3 _" x7 d
Commercial name : DTS-HD Master Audio3 J' V4 d3 ?4 z- q. @% M* W
Codec ID : A_DTS
' c6 g4 }( D5 X7 Z( ^$ p9 EDuration : 1 h 40 min' `- u9 g( y0 g5 ]  ^% c% F
Bit rate mode : Variable, r& l% j7 A  L
Bit rate : 3 596 kb/s5 [. ?* ]% P3 k$ V* |, L6 A# w
Channel(s) : 6 channels* \! J5 P* f4 ]6 M6 E' w% m2 [
Channel layout : C L R Ls Rs LFE' {9 B$ @; U; E+ @) Z
Sampling rate : 48.0 kHz, [9 S/ k7 _5 r5 N' Z7 {
Frame rate : 93.750 FPS (512 SPF)
0 ]. W/ w5 H$ O, K$ {Bit depth : 24 bits
! Z2 U, h4 {$ u6 p0 D1 A; ACompression mode : Lossless8 b/ {/ a  A' C+ _6 `
Delay relative to video : 1 ms
' y3 G1 C+ B: G2 v* dStream size : 2.51 GiB (19%)
9 h1 c5 i' `  W9 R' y- {% ~Title : DTS-HD MA 5.14 ^8 ?. k$ z+ {% F3 ?" ^! _
Language : English, D( |0 m  o/ z' z9 G! o# U  Z; d
Default : Yes# s7 T$ u# _' }. `( Z1 s
Forced : No8 ?& E; U4 D9 g3 }% ]8 ^) `
; V' @4 O' ?4 }/ Z( ~+ x

1 F4 i0 @9 R1 F1 wAudio #20 W! i# |' b& W; B
ID : 3+ Y2 w5 F! I1 O& o
Format : AC-31 S( r/ v0 W6 s9 E
Format/Info : Audio Coding 3
/ m9 U. @; k* K3 J, w' P; T% ^Commercial name : Dolby Digital
( c2 I+ U) H' m" b+ v/ Y# {; cCodec ID : A_AC3
% c# A$ Q0 U6 C2 W& L  |1 D9 rDuration : 1 h 40 min
- s7 r1 |2 E9 ?& S# g. m2 MBit rate mode : Constant
( ?) X, e9 t- z% T* D' ~: nBit rate : 640 kb/s- C& _; ~% E7 ~
Channel(s) : 6 channels
3 U1 L% C& Q. |) D# y+ q& @Channel layout : L R C LFE Ls Rs
; A2 [% p4 Z3 Y3 D5 tSampling rate : 48.0 kHz
, Y" s* w% s, w5 g" QFrame rate : 31.250 FPS (1536 SPF)
+ B9 ~* ?7 i& S4 oCompression mode : Lossy& G. Z) X7 L0 B7 m, ~, W7 U
Stream size : 458 MiB (3%)6 S7 ]! f: F) p' }" S1 N0 I
Title : DD 5.1
3 i2 F/ f! i2 xLanguage : English6 f8 y, H. T. D" s
Service kind : Complete Main; }6 ^. v- @: f, F$ t: p% V
Default : No4 Q: i: I/ v) h- z
Forced : No: k0 [6 n- f6 j

4 \8 y$ }+ K! x$ K" L/ c

$ n; d/ [1 T* ?2 k" SText
0 E. d* r. ?1 k- cID : 4  h  U5 F) u9 B1 G- V; K5 X7 o
Format : UTF-8" _- g  G1 \4 H% v3 F/ M
Codec ID : S_TEXT/UTF8
$ ?7 B$ G& x: y" Z8 }1 ~Codec ID/Info : UTF-8 Plain Text7 U' I' R, F$ j! k. e& I6 i
Duration : 1 h 39 min% N. {- v) j: V3 ~* G+ k# u, s
Bit rate : 99 b/s. |- F$ p! \: `
Count of elements : 2206
7 s! \$ s4 b1 A0 A3 A. qStream size : 72.1 KiB (0%), ]' p, z$ c7 l, E. |
Title : English-SRT
6 `8 [1 H6 \  ULanguage : English* q! b7 v2 L- }" f
Default : Yes% Q! y0 Z8 M& k; S. t8 j) E
Forced : No. l: s( n7 m0 n* p/ C# `
- Y( M7 ]+ v7 X" V9 g

8 f) L% F% v- C( c/ ZMenu+ D0 B  N7 w# L/ ^: Y# L4 Y
00:00:00.000 : en:Chapter 01) b7 Z, E8 F) w. ?. x9 S7 A
00:10:33.675 : en:Chapter 02
* }& A- S, E9 X* Y00:18:35.698 : en:Chapter 03
# B6 b; u5 B: F( h1 U0 i( W00:32:23.442 : en:Chapter 04
% T" `3 ~: E% i" Q% Z' [1 u! }00:42:38.890 : en:Chapter 05
  H" I. t1 [8 ~$ t1 \9 r- ]00:52:25.935 : en:Chapter 06
5 V" o- P9 h0 n2 o0 z1 U01:01:59.883 : en:Chapter 07
4 x' `& L& _6 h01:11:49.514 : en:Chapter 08# L% }- u) d4 i6 j- S. t, I$ ]; u" z
01:22:35.325 : en:Chapter 09+ h  R3 e9 G! Q
01:32:53.485 : en:Chapter 10

( v* D& P+ I' C$ z1 p+ k; {, t: r

3 j4 Z* _. x1 O. h蓝光高清网提示您  点击下方附件名称  马上开始下载! n8 f- J* f: b& z5 [  h

, A7 b4 ^/ F( @9 o4 `

0 E/ H" y  \# k; Y) M1 w游戏夜杀必死(台) / 今晚玩救你(港)/游戏之夜4K.Game.Night.2018.2160p.WEB-DL.x265.8bit.SDR.DTS-HD.MA.5.1-4K电影下载- T/ a7 k1 R2 p

! Q9 V2 S# l( k5 X5 \" `( |, s
游戏之夜4K.Game.Night.2018.2160p.WEB-DL.x265.8bit.SDR.DTS-HD.MA.5.1【4K SDR 13.47 GB】
" `8 S- m' ?$ k1 l% x9 N 游戏之夜4K.Game.Night.2018.2160p.WEB-DL.x265.8bit.SDR.DTS-HD.MA.5.1-SWTYBLZ.torrent (大小:67.91 KB)
+ U3 E# v3 m* Y) g

% f! [2 z+ x( a
游戏之夜中文字幕下载
4 y2 m! Q6 x/ @! \# X: Y4 ? Game.Night.2018.1080p.BluRay.x264-GECKOS.Cht@WindowsSpy_20180515122343.rar (大小:50.88 KB)

8 ^% y  A; X: Q, f
- G) E) F3 O3 ]% C" A8 W
加入蓝光高清网VIP会员  无限制下载本站所有资源---点这里

资源下载、资源播放、字幕使用、无法下载等常见问题---点这里
回复

使用道具 举报

精彩评论5

bengoben手机认证 发表于 2021-2-23 20:18:23 | 显示全部楼层

& }7 y5 z' c3 N( c9 ?' H祝蓝光高清网越办越红火。
回复 支持 反对

使用道具 举报

yuzhong000 发表于 2021-2-25 01:12:34 | 显示全部楼层
谢楼主分享透
回复 支持 反对

使用道具 举报

ggang1 发表于 2021-2-25 11:05:31 | 显示全部楼层
: [( _- Z! I+ P
天天访问蓝光高清网  天天打卡  习惯了
回复 支持 反对

使用道具 举报

Pimple手机认证 发表于 2021-2-25 12:55:58 | 显示全部楼层
非常感谢蓝光高清网分享的各种知识和资源,祝蓝光高清网越来越好
回复 支持 反对

使用道具 举报

gdlmxia 发表于 2021-2-25 22:59:11 | 显示全部楼层
太好啦&萬分感謝版主的無私發佈分享%
回复 支持 反对

使用道具 举报

您需要登录后才可以回帖 登录 | 立即注册

本版积分规则

烧友之家(蓝光高清网)本站内容部分由用户自主分享和转载自互联网,转载目的在于传递更多信息,并不代表本网赞同其观点和对其真实性负责。 如有侵权、违反国家法律政策行为,请联系我们,我们会第一时间及时清除和处理!
关注我们
  • 官方微信公众号
  • 扫码下载官方APP

X3.4 Licensed© 2001-2013 蓝光高清网 烧友之家APP |网站地图