开通会员
全站资源畅享下载
4k原盘抢先下载
免高清币下载
会员用户组特权
开通会员
上传
收藏
首页
开启左侧

宠儿 4K.The.Favourite.2018.2160p.WEB-DL.x265.8bit.SDR.DTS-HD.MA.5.1-4k电影下载—22.84 GB

[复制链接]
蓝鸟 发表于 前天 11:49 | 显示全部楼层 |阅读模式 打印 上一主题 下一主题

宠儿(2018年上映)

主演奥利维娅·科尔曼 / 艾玛·斯通 / 蕾切尔·薇兹 / 尼古拉斯·霍尔特 / 乔·阿尔文 /
导演欧格斯·兰斯莫斯
类型喜剧 剧情 传记 同性 
地区美国 英国 其他 
片长119分钟
画质4K SDR 原盘
音轨DTS-HD.MA 5.1 
评分豆瓣7.8分
电影【宠儿】原盘信息
 

加入蓝光高清网,轻松下载最新4k资源

您需要 登录 才可以下载或查看,没有帐号?立即注册

x

* }  I' D7 f* b- }( G( [7 h
$ E5 K  s$ v' g! Q/ E; D
简       介
" H& L+ G9 b" e/ R: G% a' w1 ^/ X  t+ ^" o1 |0 X- W; L3 p  B* H
  故事发生在十八世纪早期的英格兰,安妮(奥莉薇娅·柯尔曼 Olivia Colman 饰)是大不列颠王国的女王,她和自己的青梅竹马莎拉公爵夫人(蕾切尔·薇兹 Rachel Weisz 饰)一直保持着秘密的情人关系。阿比盖尔(艾玛·斯通 Emma Stone 饰)是莎拉的远方亲戚,一直渴望融入以皇室为代表的上流社会,她来到了莎拉身边,想要谋得一份职务,哪知道莎拉对她十分冷淡。; c" Z8 L) q; M+ U8 u
  凭借着自己的聪慧和计谋,阿比盖尔吸引了安妮女王的注意,得以在她的身边侍奉。很快,阿比盖尔便得知了安妮女王和莎拉之间的“小秘密”,对权谋充满了欲望的阿比盖尔开始希望自己能够取代莎拉的位置,得到女王的宠幸。

/ b' z) c' S. S' Y$ V9 C
  U- h! @% }( Q/ A* H
' C! }% t5 C3 c' X1 ?
影片参数
! G2 T$ l% {% j( o, ]. x
争宠(港) / 真宠(台) / 宠姬 / 挚爱/宠儿4K.The.Favourite.2018.2160p.WEB-DL.x265.8bit.SDR.DTS-HD.MA.5.1-4k电影信息
7 z& E/ \: J9 _/ p1 jVideo
' ~3 ~, d2 g, hID : 19 F) r3 }5 |% z: E8 N$ P2 V! \, J0 \
Format : HEVC
& L; P" E: ~5 L% k0 oFormat/Info : High Efficiency Video Coding
2 Q3 O. o9 u) e+ t& x1 PFormat profile : Main@L5.1@Main3 r% ~7 x3 i% l
Codec ID : V_MPEGH/ISO/HEVC2 @4 S8 b# ], u" A) K' @/ H3 a
Duration : 1 h 59 min
! J4 }2 S+ }5 [- {) e( uBit rate : 23.3 Mb/s
. C6 U( s: i7 hWidth : 3 840 pixels4 E: O4 N& R0 h: i
Height : 2 160 pixels
" V: _' f( @! M/ V  MDisplay aspect ratio : 16:98 a0 F( {7 |' j% V
Frame rate mode : Constant# q0 T' P& l3 J& J, W0 `
Frame rate : 23.976 (24000/1001) FPS- o: p% B1 T' n
Color space : YUV0 x' h+ W: k. i/ B$ Q. d
Chroma subsampling : 4:2:00 |1 J; c- a4 O. j% Z; n! W/ p) D0 r
Bit depth : 8 bits: i1 i- `8 y' {; }' s
Bits/(Pixel*Frame) : 0.117
- V! ]) q( V2 e/ H6 q. m$ mStream size : 19.4 GiB (85%)
$ j5 e: o6 P" J9 TDefault : Yes
& ?) U6 i% o" B4 w  BForced : No
( s( H& A0 h  SColor range : Limited
7 s0 b* g6 F: [3 s" q2 pColor primaries : BT.709
7 x" @; l9 ^- ?8 M8 ITransfer characteristics : BT.7092 ~: I4 N2 P3 z+ `8 b6 x
Matrix coefficients : BT.709
9 H2 K) _1 \. D+ a8 ^/ V: u( D% W' _; j/ V0 c! g
* }4 M- S) k! ~. s# c3 h* Y! z
Audio #1# Z$ y! H) c; y' h
ID : 2
! m* i, Y7 d) l3 ?! }Format : DTS XLL
8 H1 m/ b+ j# V1 r5 H* r3 i3 lFormat/Info : Digital Theater Systems
+ I, I- M& a* v/ FCommercial name : DTS-HD Master Audio5 v" `  F$ R7 x: {
Codec ID : A_DTS' j8 Y% U2 @; g: D  `, l
Duration : 1 h 59 min
1 r! m8 o3 H6 {, w7 PBit rate mode : Variable
) @  {  b9 |8 J2 @Bit rate : 3 352 kb/s; i- C: e( ~2 b9 P2 r4 s: _
Channel(s) : 6 channels8 W! K1 V1 U' j. n9 ~- f
Channel layout : C L R Ls Rs LFE
0 ~2 N& x+ [0 o7 ~( x" nSampling rate : 48.0 kHz' t' Q0 m" C. e
Frame rate : 93.750 FPS (512 SPF)
- D, _7 N7 P' S* U* Y5 ?Bit depth : 24 bits. F- D' u. Y! K
Compression mode : Lossless
* u6 `0 m( r, A7 i6 f5 X/ t  kDelay relative to video : 1 s 1 ms: P5 t  r5 ?2 D/ ]% p4 c
Stream size : 2.80 GiB (12%)9 K1 @* S- F% ]( ?% L7 d- {  v6 x
Title : DTS-HD MA 5.1
# A$ r0 e+ l3 ILanguage : English5 K0 v% J2 d" K) J$ C3 O5 b
Default : Yes
- c; N# z/ G) {$ M& k- x3 W/ F( E3 \Forced : No
! O9 W( ^$ f( X6 k6 P8 {* }5 w; J  D% _( e( f) t  R- R& c

6 B/ }, n: y% o3 bAudio #2
2 {1 J* J# H5 SID : 3
+ J/ j* i( p- sFormat : AC-3
0 L& v/ {" e# N) n; AFormat/Info : Audio Coding 3: B6 s4 Q1 ^% b. \
Commercial name : Dolby Digital: N0 g+ [+ G3 s( Z: z3 B
Codec ID : A_AC33 U) v# I  ?+ k# u
Duration : 1 h 59 min; j, k3 U; d  z' H. ]9 S& Y
Bit rate mode : Constant! |/ p/ o, [4 G+ i" n$ v
Bit rate : 640 kb/s4 X. u7 Y% a- h) w1 n- Q4 o7 `
Channel(s) : 6 channels6 v7 f& T) O% M3 O- w6 D: H1 X& P6 d  F
Channel layout : L R C LFE Ls Rs
+ M# D3 @6 u: J4 [$ {4 s2 pSampling rate : 48.0 kHz
3 v& O6 n# V4 [; HFrame rate : 31.250 FPS (1536 SPF)
) U- b* w" x, U" s2 R1 hCompression mode : Lossy& w: \& T* G( R& J) T0 N4 G8 E% C) l
Stream size : 547 MiB (2%)/ c0 z% Q5 C$ p# {& m0 _% e7 k
Title : DD 5.1" Z, D" c4 m) B) V: p
Language : English' n' t/ I6 ?& C( f
Service kind : Complete Main2 j. s; F" c: ?) A
Default : No8 S' p0 {0 H0 h, O; d% k0 ?  ~0 h8 m- ^
Forced : No
& D" W+ a6 n; F
. P- `# ]% R. [* Q' c" a9 n

" x* \) t; b0 i2 cText #1" }8 e: ]" G$ K& N7 c) J2 m
ID : 42 V: M0 [" g3 E+ n2 U" q) J
Format : UTF-88 J' A, {5 l5 {
Codec ID : S_TEXT/UTF8
; B4 K7 c- s5 t: \# }; o( SCodec ID/Info : UTF-8 Plain Text5 ?0 T+ v6 k# a- ~
Duration : 1 h 49 min+ E3 \2 c* ]# h5 t8 P0 W
Bit rate : 52 b/s
4 v4 h  `: f1 j7 JCount of elements : 13417 M1 T! N* M. \% P% }) D
Stream size : 41.8 KiB (0%)+ z, l: M1 L" K( t  A" }6 _$ c
Title : English-SRT( y3 I& n3 R3 X. S1 T( T
Language : English
2 I; L  U. b- r6 J9 t7 MDefault : Yes
4 x* k) |1 ], }" }' V+ ?- x" h2 EForced : No6 y6 G5 y* S' }3 T
3 [* u% L0 {; k% ?- R9 a3 L

- i+ G1 Q2 |' ^6 ~/ J1 yText #2
) r8 F3 G$ W! ~) d" b: c2 @- E, {! LID : 5. Q% y& E6 r' _( {
Format : PGS
5 q+ q+ {, O6 V8 ^: rMuxing mode : zlib' F9 |  r( M, R+ D7 q8 M+ ?
Codec ID : S_HDMV/PGS
( [, }1 h4 a' u  {3 e, fCodec ID/Info : Picture based subtitle format used on BDs/HD-DVDs( M8 L6 w- W) K, b: b/ }& m
Duration : 1 h 57 min: |  Z" v& q* X6 S+ G, V
Bit rate : 36.0 kb/s
% h$ B+ A0 w  w+ N% w' N) qCount of elements : 2632
8 i% H3 X# A7 Y% WStream size : 30.3 MiB (0%)
, U# Z8 ~7 r5 S8 \Title : French-PGS
# H9 {2 R" }0 i. y7 a" h5 FLanguage : French5 @9 b) ]4 p3 v- {
Default : No# n" p8 O0 ^( h6 W% N' u* m# e# _! h
Forced : No. O1 P6 U: q% r$ i; x% U
9 Q% ^2 m/ k% m5 u2 q4 s- E

0 F6 f: T9 t5 ]+ f" dText #3
1 s, S5 Z/ W; wID : 6& }* K1 E! H1 ~# @2 W8 p% b1 _
Format : PGS
' R% Z; e: }* R2 [3 N) B! ]Muxing mode : zlib$ b+ [+ q' `: t* {7 O
Codec ID : S_HDMV/PGS
( f$ {6 p+ e( E7 W1 u- y  H( t2 x) KCodec ID/Info : Picture based subtitle format used on BDs/HD-DVDs
  O# n8 H! N. PDuration : 1 h 57 min
- B- d) H9 ~# K/ v% a/ R* `Bit rate : 33.5 kb/s. _. j! d- X1 |" c# S) @! e3 D
Count of elements : 2630+ b6 |* h1 e' V4 G/ ], B5 j
Stream size : 28.2 MiB (0%)
  V5 a2 l5 X9 ?- t8 UTitle : Spanish-PGS( u9 U0 N( g  w2 ^& {3 X
Language : Spanish
# U8 m9 t% i  F$ C+ Y  ^9 }& H6 n9 |Default : No
" F- w- t- ]8 Z3 [& B, \Forced : No1 E4 `* _! ?9 }; |3 b- O% d

7 N1 x" [" Z8 c
1 o. G9 P9 w+ D  N
Menu
) w/ Y1 P% d# K0 D00:00:01.001 : en:This Mud Stinks
, o8 D1 \" O1 a1 c6 ~5 P; m00:18:37.491 : en:I Do Fear Confusion and Accidents
9 I4 H. h9 |; B( i5 A* w0 T00:40:36.475 : en:What an Outfit
9 H+ }9 Y1 ]) b& B00:46:45.385 : en:A Minor Hitch; W, i2 \+ Y& A7 I) k
01:06:24.188 : en:What If I Should Fall Asleep and Slip Under?9 u/ G! p. V! w
01:15:13.217 : en:Stop Infection
7 }3 p) m8 V% d4 `01:28:33.683 : eneave That I Like It; _) R& {4 f  i5 O+ h& W3 @! }
01:36:56.769 : en:I Dreamt I Stabbed You In the Eye
9 R! D' j8 k2 l8 T% @$ O

* p! Y: \' m6 o" }' ]蓝光高清网提示您  点击下方附件名称  马上开始下载
0 K8 u& x. w6 K1 B& |; p4 o% u8 M" o5 S* c  s
; n5 T% p8 _! j1 k- }1 C
争宠(港) / 真宠(台) / 宠姬 / 挚爱/宠儿4K.The.Favourite.2018.2160p.WEB-DL.x265.8bit.SDR.DTS-HD.MA.5.1-4K电影下载, f. X6 @/ x) u+ C- S
7 ?  x' {5 L* x2 `% N* b) C: u7 z
宠儿4K.The.Favourite.2018.2160p.WEB-DL.x265.8bit.SDR.DTS-HD.MA.5.1【4K SDR  22. 84 GB】
# k; [6 y1 u% E2 U8 e- m6 k 宠儿4K.The.Favourite.2018.2160p.WEB-DL.x265.8bit.SDR.DTS-HD.MA.5.1.torrent (文件大小:57.59 KB)

: c" B2 ^4 i" {( Q  D* X- H1 p( n( {' @. T
宠儿中文字幕下载
" j. [: b$ d7 \* B4 V 宠儿.The.Favourite.2018.1080p.BluRay.x264.DTS-HD.MA.5.1-FGT.zip (文件大小:187.91 KB)

) Y: C1 k5 S" U! |0 _
4 j+ y0 l. ^" @2 p
6 G* ^+ z  {- _$ x# C; `5 \- e
加入蓝光高清网VIP会员  无限制下载本站所有资源---点这里

资源下载、资源播放、字幕使用、无法下载等常见问题---点这里
回复

使用道具 举报

 

精彩评论3

正序浏览
gdlmxia 发表于 前天 12:00 | 显示全部楼层
 
太好啦&萬分感謝版主的無私發佈分享%
回复

使用道具 举报

 
bengoben 发表于 前天 20:20 | 显示全部楼层
 
版主的无私发布,感谢分享!!!
回复

使用道具 举报

 
pscel 发表于 昨天 08:02 | 显示全部楼层
 
$ S$ ?. q+ ?4 O$ @' b
祝蓝光高清网越办越红火。
回复

使用道具 举报

 
您需要登录后才可以回帖 登录 | 立即注册

本版积分规则

0关注

2粉丝

93698帖子

  • 版块推荐
  • 百宝箱

电影推荐

更多+

热门电影

更多+

下载APP 签到更便捷

官方微信

手机APP

蓝光高清网

专注4k电影、4k视频、VR视频、高清电影、蓝光原盘资源

本站内容部分由用户自主分享和转载自互联网,转载目的在于传递更多信息,并不代表本网赞同其观点和对其真实性负责。

如有侵权、违反国家法律政策行为,请联系我们,我们会第一时间及时清除和处理!

举报反馈邮箱:lanniao@1080pro.net

Copyright   ©2019-2020  蓝光高清网    |网站地图