游客您好
第三方账号登陆
  • 点击联系客服

    在线时间:9:00-18:00

    客服QQ

    1371333023

    电子邮件

    lanniao@1080pro.net
  • 烧友之家APP

    随时掌握烧友资讯

  • 扫描二维码

    关注微信公众号

推荐阅读
蓝鸟
未知星球 | 未知职业
  • 关注0
  • 粉丝2
  • 帖子93857
精选帖子
开启左侧

[探索海洋] 鲨鱼海洋:灭绝 4k Sharkwater.Extinction.2018.2160p.AMZN.WEB-DL.x265.8bit.SDR.DDP5.1.电影下载—7.25 GB

[复制链接]
蓝鸟 发表于 2021-2-23 11:55:01 | 显示全部楼层 |阅读模式 打印 上一主题 下一主题

加入蓝光高清网,轻松下载最新4k资源

您需要 登录 才可以下载或查看,没有帐号?立即注册

x
简       介

  Rob Stewart执导的纪录片电影,旨在保护鲨鱼这一物种,该片于2018年出品。
  该片以冷静的拍摄手法展示了本该是海洋霸主的鲨鱼,在人类社会却濒临灭绝的困境,特别是游走在各国法律边缘的捕鲨行业以及背后的种种腐败。斯图尔特跟踪拍摄了捕鲨行业,引起了观众的反思,也间接促进了一些国家的法律的改变,和民间鲨鱼保护团体的创建等。



影片参数
鲨鱼海洋:灭绝4k Sharkwater.Extinction.2018.2160p.AMZN.WEB-DL.x265.8bit.SDR.DDP5.1.电影信息
Video
ID : 1
Format : HEVC
Format/Info : High Efficiency Video Coding
Format profile : Main@L5@Main
Codec ID : V_MPEGH/ISO/HEVC
Duration : 1 h 24 min
Bit rate : 11.6 Mb/s
Width : 3 840 pixels
Height : 2 160 pixels
Display aspect ratio : 16:9
Frame rate mode : Constant
Frame rate : 23.976 (24000/1001) FPS
Standard : NTSC
Color space : YUV
Chroma subsampling : 4:2:0
Bit depth : 8 bits
Bits/(Pixel*Frame) : 0.058
Stream size : 6.86 GiB (95%)
Writing library : x265 0.0:[Linux][GCC 4.8.2][64 bit] 8bit+10bit+12bit
Encoding settings : cpuid=1173503 / frame-threads=2 / wpp / no-pmode / no-pme / psnr / ssim / log-level=2 / csvfn=/apollo/env/YoshiEncodingWorkflowActivitiesLinuxEncoding/var/tmp/737659305/f86e6569-9ee2-4cf2-b850-1e06e01a257c/7438274b-cdfe-4535-bf50-3f13888191c8_video_2160p_15000kbps.csv / csv-log-level=2 / input-csp=1 / input-res=3840x2160 / interlace=0 / total-frames=0 / level-idc=50 / high-tier=1 / uhd-bd=0 / ref=5 / no-allow-non-conformance / no-repeat-headers / annexb / no-aud / no-hrd / info / hash=0 / no-temporal-layers / no-open-gop / min-keyint=61 / keyint=120 / bframes=8 / b-adapt=2 / b-pyramid / bframe-bias=0 / rc-lookahead=120 / lookahead-slices=4 / scenecut=0 / no-intra-refresh / ctu=64 / min-cu-size=8 / rect / amp / max-tu-size=32 / tu-inter-depth=4 / tu-intra-depth=4 / limit-tu=4 / rdoq-level=2 / dynamic-rd=0.00 / no-ssim-rd / signhide / tskip / nr-intra=100 / nr-inter=600 / no-constrained-intra / strong-intra-smoothing / max-merge=3 / limit-refs=3 / limit-modes / me=3 / subme=3 / merange=57 / temporal-mvp / weightp / weightb / no-analyze-src-pics / deblock=0:0 / no-sao / no-sao-non-deblock / rd=4 / no-early-skip / no-rskip / no-fast-intra / tskip-fast / no-cu-lossless / b-intra / rdpenalty=0 / psy-rd=4.00 / psy-rdoq=10.00 / no-rd-refine / analysis-reuse-mode=0 / no-lossless / cbqpoffs=0 / crqpoffs=0 / rc=crf / crf=25.0 / qcomp=0.60 / qpstep=1 / stats-write=0 / stats-read=0 / vbv-maxrate=15000 / vbv-bufsize=20000 / vbv-init=0.9 / crf-max=0.0 / crf-min=0.0 / ipratio=1.10 / pbratio=1.00 / aq-mode=0 / aq-strength=1.50 / no-cutree / zone-count=0 / no-strict-cbr / qg-size=32 / rc-grain / qpmax=69 / qpmin=0 / const-vbv / sar=1 / overscan=0 / videoformat=2 / range=0 / colorprim=1 / transfer=1 / colormatrix=1 / chromaloc=0 / display-window=0 / max-cll=0,0 / min-luma=0 / max-luma=255 / log2-max-poc-lsb=8 / vui-timing-info / vui-hrd-info / slices=1 / opt-qp-pps / opt-ref-list-length-pps / no-multi-pass-opt-rps / scenecut-bias=0.05 / no-opt-cu-delta-qp / no-aq-motion / no-hdr / no-hdr-opt / no-dhdr10-opt / analysis-reuse-level=5 / scale-factor=0 / refine-intra=0 / refine-inter=0 / refine-mv=0 / no-limit-sao / ctu-info=0
Default : Yes
Forced : No
Color range : Limited
Color primaries : BT.709
Transfer characteristics : BT.709
Matrix coefficients : BT.709

Audio
ID : 2
Format : E-AC-3
Format/Info : Enhanced AC-3
Commercial name : Dolby Digital Plus
Codec ID : A_EAC3
Duration : 1 h 24 min
Bit rate mode : Constant
Bit rate : 640 kb/s
Channel(s) : 6 channels
Channel layout : L R C LFE Ls Rs
Sampling rate : 48.0 kHz
Frame rate : 31.250 FPS (1536 SPF)
Compression mode : Lossy
Stream size : 387 MiB (5%)
Title : English
Language : English
Service kind : Complete Main
Default : No
Forced : No

Text #1
ID : 3
Format : UTF-8
Codec ID : S_TEXT/UTF8
Codec ID/Info : UTF-8 Plain Text
Duration : 1 h 16 min
Bit rate : 50 b/s
Count of elements : 774
Stream size : 28.5 KiB (0%)
Title : Danish
Language : Danish
Default : No
Forced : No

Text #2
ID : 4
Format : UTF-8
Codec ID : S_TEXT/UTF8
Codec ID/Info : UTF-8 Plain Text
Duration : 1 h 16 min
Bit rate : 51 b/s
Count of elements : 755
Stream size : 29.2 KiB (0%)
Title : Dutch
Language : Dutch
Default : No
Forced : No


蓝光高清网提示您  点击下方附件名称  马上开始下载


鲨鱼海洋:灭绝4k Sharkwater.Extinction.2018.2160p.AMZN.WEB-DL.x265.8bit.SDR.DDP5.1.电影下载

鲨鱼海洋:灭绝 4k Sharkwater.Extinction.2018.2160p.AMZN.WEB-DL.x265.8bit.SDR.DDP5.1.电影下载—7.25 GB


鲨鱼海洋:灭绝中文字幕下载




来源: 鲨鱼海洋:灭绝 4k Sharkwater.Extinction.2018.2160p.AMZN.WEB-DL.x265.8bit.SDR.DDP5.1.电影下载—7.25 GB
加入蓝光高清网VIP会员  无限制下载本站所有资源---点这里

资源下载、资源播放、字幕使用、无法下载等常见问题---点这里
回复

使用道具 举报

精彩评论2

Vincel 发表于 2021-2-24 00:20:28 | 显示全部楼层

祝蓝光高清网越办越红火。
回复 支持 反对

使用道具 举报

gdlmxia 发表于 2021-2-25 14:37:12 | 显示全部楼层
太好啦&萬分感謝版主的無私發佈分享%
回复 支持 反对

使用道具 举报

您需要登录后才可以回帖 登录 | 立即注册

本版积分规则

烧友之家(蓝光高清网)本站内容部分由用户自主分享和转载自互联网,转载目的在于传递更多信息,并不代表本网赞同其观点和对其真实性负责。 如有侵权、违反国家法律政策行为,请联系我们,我们会第一时间及时清除和处理!
蓝光高清网 综合资讯平台
关注我们
  • 官方微信公众号
  • 扫码下载官方APP

X3.4 Licensed© 2001-2013 蓝光高清网 烧友之家APP |网站地图