[悬疑] 后窗惊魂/窥凶杀人/恐怖社区 Disturbia.2007.1080p.BluRay.x264.DD5.1-FGT 11.06GB

[复制链接]
蓝鸟VIP会员 永久VIP 发表于 2019-8-21 23:19:55 | 显示全部楼层 |阅读模式 打印 上一主题 下一主题

马上注册,轻松下载,海量资源,让你轻松玩转社区。

您需要 登录 才可以下载或查看,没有帐号?立即注册

x


◎译  名 后窗惊魂/窥凶杀人/窗后的连环杀人案/恐怖社区
◎片  名 Disturbia
◎年  代 2007
◎国  家 美国
◎类  别 悬疑/惊悚
◎语  言 英语/西班牙语
◎上映日期 2007-04-13(美国)
◎IMDb评分  6.9/10 from 173,716 users
◎IMDb链接  http://www.imdb.com/title/tt0486822/
◎豆瓣评分 6.5/10 from 14,939 users
◎豆瓣链接 http://movie.douban.com/subject/1946877/
◎片  长 105 分钟
◎导  演 D·J·卡卢索 D.J. Caruso
◎主  演 希亚·拉博夫 Shia LaBeouf
      萨拉·罗默尔 Sarah Roemer
      凯瑞-安·莫斯 Carrie-Anne Moss
      大卫·摩斯 David Morse
      艾伦·余 Aaron Yoo
      马特·克拉文 Matt Craven
      霍塞·帕布罗·坎蒂罗 Jose Pablo Cantillo
      维奥拉·戴维斯 Viola Davis
◎简  介
  本片翻拍自希区柯克的名作《后窗》。凯尔(希安?拉博夫 Shia LaBeouf 饰)本来有着一个幸福的家庭,然而一年前当他的父亲死于车祸后,他的生活开始改变。凯尔一直认为父亲的死与自己有关,一直非常自责。一天,老师批评凯尔时无意提到了他父亲,他爆发了,将老师扔了出去,因此被法院判罚监禁在家三个月。
  母亲试图用工作冲刷掉悲伤,因此整天只有凯尔一个在家。百无聊赖的凯尔开始用他的望远镜偷窥邻居们的生活:风骚的女仆勾引男主人;三个小孩整天在家看A片;整天剪草的神经汉捏死在自己花园里打洞的兔子;长得鼻直口阔的美女天天游泳练瑜加等等。凯尔渐渐发现在这些邻居中了可能一个隐藏的连环杀手,危险也随之而来。
◎获奖情况
  第17届MTV电影奖 (2008)
  MTV电影奖 最佳吻戏(提名) 希亚·拉博夫 / 萨拉·罗默尔
Video
ID                                       : 1
Format                                   : AVC
Format/Info                              : Advanced Video Codec
Format profile                           : [email protected]
Format settings, CABAC                   : Yes
Format settings, ReFrames                : 4 frames
Codec ID                                 : V_MPEG4/ISO/AVC
Duration                                 : 1h 44mn
Bit rate                                 : 14.5 Mbps
Width                                    : 1 920 pixels
Height                                   : 1 080 pixels
Display aspect ratio                     : 16:9
Frame rate mode                          : Constant
Frame rate                               : 23.976 fps
Color space                              : YUV
Chroma subsampling                       : 4:2:0
Bit depth                                : 8 bits
Scan type                                : Progressive
Bits/(Pixel*Frame)                       : 0.292
Stream size                              : 10.4 GiB (94%)
Writing library                          : x264 core 125 r2200kMod 999b753
Encoding settings                        : cabac=1 / ref=4 / deblock=1:-3:-3 / analyse=0x3:0x133 / me=umh / subme=11 / psy=1 / fade_compensate=0.00 / psy_rd=1.00:0.00 / mixed_ref=1 / me_range=48 / chroma_me=1 / trellis=2 / 8x8dct=1 / cqm=0 / deadzone=21,11 / fast_pskip=0 / chroma_qp_offset=-2 / threads=12 / lookahead_threads=2 / sliced_threads=0 / nr=0 / decimate=0 / interlaced=0 / bluray_compat=0 / constrained_intra=0 / bframes=10 / b_pyramid=2 / b_adapt=2 / b_bias=0 / direct=3 / weightb=1 / open_gop=0 / weightp=2 / keyint=240 / keyint_min=23 / scenecut=40 / intra_refresh=0 / rc=2pass / mbtree=0 / bitrate=14500 / ratetol=1.0 / qcomp=0.60 / qpmin=0 / qpmax=69 / qpstep=4 / cplxblur=20.0 / qblur=0.5 / ip_ratio=1.40 / pb_ratio=1.30 / aq=3:0.80 / zones=187730,195311,b=0.35
Language                                 : English
Default                                  : Yes
Forced                                   : No
Audio
ID                                       : 2
Format                                   : AC-3
Format/Info                              : Audio Coding 3
Mode extension                           : CM (complete main)
Format settings, Endianness              : Big
Codec ID                                 : A_AC3
Duration                                 : 1h 44mn
Bit rate mode                            : Constant
Bit rate                                 : 640 Kbps
Channel(s)                               : 6 channels
Channel positions                        : Front: L C R, Side: L R, LFE
Sampling rate                            : 48.0 KHz
Bit depth                                : 16 bits
Compression mode                         : Lossy
Stream size                              : 479 MiB (4%)
Language                                 : English
Default                                  : Yes
Forced                                   : No
Text
ID                                       : 3
Format                                   : UTF-8
Codec ID                                 : S_TEXT/UTF8
Codec ID/Info                            : UTF-8 Plain Text
Language                                 : English
Default                                  : No
Forced                                   : No
Menu
00:00:00.000                             : en:00:00:00.000
00:05:45.595                             : en:00:05:45.595
00:11:56.132                             : en:00:11:56.132
00:17:02.730                             : en:00:17:02.730
00:22:53.455                             : en:00:22:53.455
00:27:15.300                             : en:00:27:15.300
00:31:54.579                             : en:00:31:54.579
00:39:36.249                             : en:00:39:36.249
00:45:53.125                             : en:00:45:53.125
00:50:30.069                             : en:00:50:30.069
00:55:22.903                             : en:00:55:22.903
01:00:55.151                             : en:01:00:55.151
01:04:49.761                             : en:01:04:49.761
01:10:26.013                             : en:01:10:26.013
01:16:05.144                             : en:01:16:05.144
01:21:34.014                             : en:01:21:34.014
01:25:44.723                             : en:01:25:44.723
01:30:29.549                             : en:01:30:29.549

精彩剧照


                                       

蓝光高清网提示您 点击下方附件名称 马上开始下载



温馨提示:
本站资源优先使用迅雷下载,迅雷会员下载,速度基本可以跑满宽带
如果遇到无资源或者版权问题无法下载,推荐使用115网盘离线下载(点击查看115网盘离线下载教程


  • 该资源需要您回复以后 刷新网页进行下载操作

  • 1、Disturbia.2007.1080p.BluRay.x264.DD5.1-FGT.torrent 56KB 已下载 0 次

加入蓝光高清网VIP会员  无限制下载本站所有资源---点此加入

资源下载、资源播放、字幕使用、无法下载等常见问题---点这里

回复

使用道具 举报

懒得打字嘛,点击右侧快捷回复
高级模式
B Color Image Link Quote Code Smilies 上传

本版积分规则

关注0

粉丝0

帖子66311

发布主题
最新电影 论坛
广告位
联系我们
点击这里联系客服

服务时间:
周一到周日8:00-23:30

  • 打开微信扫一扫
    关注公众号

  • 手机QQ扫一扫
    添加客服

Archiver手机版蓝光高清网 ( 渝ICP备18006373号-2 )|网站地图

Powered by Discuz! X3.4  © 2001-2013 Comsenz Inc.