游客您好
第三方账号登陆
  • 点击联系客服

    在线时间:9:00-18:00

    客服QQ

    1371333023

    电子邮件

    lanniao@1080pro.net
  • 烧友之家APP

    随时掌握烧友资讯

  • 扫描二维码

    关注微信公众号

推荐阅读
蓝鸟
未知星球 | 未知职业
  • 关注0
  • 粉丝2
  • 帖子93845
热议话题
精选帖子
开启左侧

[4K高清美剧] 六场危事 4k Crisis.In.Six.Scenes.S01.2160p.美剧下载—8.49 GB

[复制链接]
蓝鸟 发表于 2021-2-24 22:51:49 | 显示全部楼层 |阅读模式 打印 上一主题 下一主题
六场危事

状态:第一季(完结)
上映时间:2016-09-30
类型:喜剧 
地区:美国
导演:伍迪·艾伦
主演:伍迪·艾伦 / 麦莉·赛勒斯 / 伊莲·梅 / 瑞秋·布罗斯纳安 / 约翰·马加罗
画质标准:4K(3840x2160) 封装音轨:MKV 音轨编码:其他DD
豆瓣评分:7.9分

加入蓝光高清网,轻松下载最新4k资源

您需要 登录 才可以下载或查看,没有帐号?立即注册

x
六度危机/六场危事4k Crisis.In.Six.Scenes.S01.2160p.AMZN.WEBRip.DDP5.1.x265.美剧信息
  1. <p><font face="Tahoma" size="1">Video</font></p><p><font face="Tahoma" size="1">ID : 1</font></p><p><font face="Tahoma" size="1">Format : HEVC</font></p><p><font face="Tahoma" size="1">Format/Info : High Efficiency Video Coding</font></p><p><font face="Tahoma" size="1">Format profile : Main@L5@Main</font></p><p><font face="Tahoma" size="1">Codec ID : V_MPEGH/ISO/HEVC</font></p><p><font face="Tahoma" size="1">Duration : 24 min 14 s</font></p><p><font face="Tahoma" size="1">Bit rate : 9 526 kb/s</font></p><p><font face="Tahoma" size="1">Width : 3 840 pixels</font></p><p><font face="Tahoma" size="1">Height : 2 160 pixels</font></p><p><font face="Tahoma" size="1">Display aspect ratio : 16:9</font></p><p><font face="Tahoma" size="1">Frame rate mode : Constant</font></p><p><font face="Tahoma" size="1">Frame rate : 23.976 (24000/1001) FPS</font></p><p><font face="Tahoma" size="1">Standard : NTSC</font></p><p><font face="Tahoma" size="1">Color space : YUV</font></p><p><font face="Tahoma" size="1">Chroma subsampling : 4:2:0</font></p><p><font face="Tahoma" size="1">Bit depth : 8 bits</font></p><p><font face="Tahoma" size="1">Bits/(Pixel*Frame) : 0.048</font></p><p><font face="Tahoma" size="1">Stream size : 1.61 GiB (94%)</font></p><p><font face="Tahoma" size="1">Writing library : x265 2.9_elemental+1-9e0607aa5b6f:[Linux][GCC 4.8.5][64 bit] 8bit+10bit+12bit</font></p><p><font face="Tahoma" size="1">Encoding settings : cpuid=1111039 / frame-threads=2 / wpp / no-pmode / no-pme / psnr / ssim / log-level=2 / csv / csv-log-level=2 / input-csp=1 / input-res=3840x2160 / interlace=0 / total-frames=0 / level-idc=50 / high-tier=1 / uhd-bd=0 / ref=5 / no-allow-non-conformance / no-repeat-headers / annexb / no-aud / no-hrd / info / hash=0 / no-temporal-layers / no-open-gop / min-keyint=61 / keyint=120 / gop-lookahead=0 / bframes=8 / b-adapt=2 / b-pyramid / bframe-bias=0 / rc-lookahead=120 / lookahead-slices=4 / scenecut=0 / radl=0 / no-intra-refresh / ctu=64 / min-cu-size=8 / rect / amp / max-tu-size=32 / tu-inter-depth=4 / tu-intra-depth=4 / limit-tu=4 / rdoq-level=2 / dynamic-rd=0.00 / no-ssim-rd / signhide / tskip / nr-intra=100 / nr-inter=600 / no-constrained-intra / strong-intra-smoothing / max-merge=3 / limit-refs=3 / limit-modes / me=3 / subme=3 / merange=57 / temporal-mvp / weightp / weightb / no-analyze-src-pics / deblock=0:0 / no-sao / no-sao-non-deblock / rd=4 / no-early-skip / no-rskip / no-fast-intra / tskip-fast / no-cu-lossless / b-intra / no-splitrd-skip / rdpenalty=0 / psy-rd=4.00 / psy-rdoq=10.00 / no-rd-refine / no-lossless / cbqpoffs=0 / crqpoffs=0 / rc=crf / crf=25.0 / qcomp=0.60 / qpstep=1 / stats-write=0 / stats-read=0 / vbv-maxrate=15000 / vbv-bufsize=20000 / vbv-init=0.9 / crf-max=0.0 / crf-min=0.0 / ipratio=1.10 / pbratio=1.00 / aq-mode=0 / aq-strength=1.50 / no-cutree / zone-count=0 / no-strict-cbr / qg-size=32 / rc-grain / qpmax=69 / qpmin=0 / const-vbv / sar=1 / overscan=0 / videoformat=2 / range=0 / colorprim=1 / transfer=1 / colormatrix=1 / chromaloc=0 / display-window=0 / max-cll=0,0 / min-luma=0 / max-luma=255 / log2-max-poc-lsb=8 / vui-timing-info / vui-hrd-info / slices=1 / opt-qp-pps / no-opt-ref-list-length-pps / no-multi-pass-opt-rps / scenecut-bias=0.05 / no-opt-cu-delta-qp / no-aq-motion / no-hdr / no-hdr-opt / no-dhdr10-opt / no-idr-recovery-sei / analysis-reuse-level=5 / scale-factor=0 / refine-intra=0 / refine-inter=0 / refine-mv=0 / no-limit-sao / ctu-info=0 / no-lowpass-dct / refine-mv-type=0 / copy-pic=1 / max-ausize-factor=1.0 / no-dynamic-refine / no-single-sei</font></p><p><font face="Tahoma" size="1">Default : Yes</font></p><p><font face="Tahoma" size="1">Forced : No</font></p><p><font face="Tahoma" size="1">Color range : Limited</font></p><p><font face="Tahoma" size="1">Color primaries : BT.709</font></p><p><font face="Tahoma" size="1">Transfer characteristics : BT.709</font></p><p><font face="Tahoma" size="1">Matrix coefficients : BT.709</font></p><p><font face="Tahoma" size="1">
  2. </font></p><p><font face="Tahoma" size="1">Audio</font></p><p><font face="Tahoma" size="1">ID : 2</font></p><p><font face="Tahoma" size="1">Format : E-AC-3</font></p><p><font face="Tahoma" size="1">Format/Info : Enhanced AC-3</font></p><p><font face="Tahoma" size="1">Commercial name : Dolby Digital Plus</font></p><p><font face="Tahoma" size="1">Codec ID : A_EAC3</font></p><p><font face="Tahoma" size="1">Duration : 24 min 14 s</font></p><p><font face="Tahoma" size="1">Bit rate mode : Constant</font></p><p><font face="Tahoma" size="1">Bit rate : 640 kb/s</font></p><p><font face="Tahoma" size="1">Channel(s) : 6 channels</font></p><p><font face="Tahoma" size="1">Channel layout : L R C LFE Ls Rs</font></p><p><font face="Tahoma" size="1">Sampling rate : 48.0 kHz</font></p><p><font face="Tahoma" size="1">Frame rate : 31.250 FPS (1536 SPF)</font></p><p><font face="Tahoma" size="1">Compression mode : Lossy</font></p><p><font face="Tahoma" size="1">Stream size : 111 MiB (6%)</font></p><p><font face="Tahoma" size="1">Title : English</font></p><p><font face="Tahoma" size="1">Language : English</font></p><p><font face="Tahoma" size="1">Service kind : Complete Main</font></p><p><font face="Tahoma" size="1">Default : No</font></p><p><font face="Tahoma" size="1">Forced : No</font></p><p><font face="Tahoma" size="1">
  3. </font></p><p><font face="Tahoma" size="1">Text #1</font></p><p><font face="Tahoma" size="1">ID : 3</font></p><p><font face="Tahoma" size="1">Format : UTF-8</font></p><p><font face="Tahoma" size="1">Codec ID : S_TEXT/UTF8</font></p><p><font face="Tahoma" size="1">Codec ID/Info : UTF-8 Plain Text</font></p><p><font face="Tahoma" size="1">Duration : 22 min 26 s</font></p><p><font face="Tahoma" size="1">Bit rate : 86 b/s</font></p><p><font face="Tahoma" size="1">Count of elements : 458</font></p><p><font face="Tahoma" size="1">Stream size : 14.3 KiB (0%)</font></p><p><font face="Tahoma" size="1">Title : French</font></p><p><font face="Tahoma" size="1">Language : French</font></p><p><font face="Tahoma" size="1">Default : No</font></p><p><font face="Tahoma" size="1">Forced : No</font></p><p><font face="Tahoma" size="1">
  4. </font></p><p><font face="Tahoma" size="1">Text #2</font></p><p><font face="Tahoma" size="1">ID : 4</font></p><p><font face="Tahoma" size="1">Format : UTF-8</font></p><p><font face="Tahoma" size="1">Codec ID : S_TEXT/UTF8</font></p><p><font face="Tahoma" size="1">Codec ID/Info : UTF-8 Plain Text</font></p><p><font face="Tahoma" size="1">Duration : 22 min 26 s</font></p><p><font face="Tahoma" size="1">Bit rate : 92 b/s</font></p><p><font face="Tahoma" size="1">Count of elements : 454</font></p><p><font face="Tahoma" size="1">Stream size : 15.2 KiB (0%)</font></p><p><font face="Tahoma" size="1">Title : Castilian</font></p><p><font face="Tahoma" size="1">Language : Spanish</font></p><p><font face="Tahoma" size="1">Default : No</font></p><p><font face="Tahoma" size="1">Forced : No</font></p><p><font face="Tahoma" size="1">
  5. </font></p><p><font face="Tahoma" size="1">Text #3</font></p><p><font face="Tahoma" size="1">ID : 5</font></p><p><font face="Tahoma" size="1">Format : UTF-8</font></p><p><font face="Tahoma" size="1">Codec ID : S_TEXT/UTF8</font></p><p><font face="Tahoma" size="1">Codec ID/Info : UTF-8 Plain Text</font></p><p><font face="Tahoma" size="1">Duration : 22 min 19 s</font></p><p><font face="Tahoma" size="1">Bit rate : 77 b/s</font></p><p><font face="Tahoma" size="1">Count of elements : 426</font></p><p><font face="Tahoma" size="1">Stream size : 12.7 KiB (0%)</font></p><p><font face="Tahoma" size="1">Title : Japanese</font></p><p><font face="Tahoma" size="1">Language : Japanese</font></p><p><font face="Tahoma" size="1">Default : No</font></p><p><font face="Tahoma" size="1">Forced : No</font></p><p><font face="Tahoma" size="1">
  6. </font></p><p><font face="Tahoma" size="1">Text #4</font></p><p><font face="Tahoma" size="1">ID : 6</font></p><p><font face="Tahoma" size="1">Format : UTF-8</font></p><p><font face="Tahoma" size="1">Codec ID : S_TEXT/UTF8</font></p><p><font face="Tahoma" size="1">Codec ID/Info : UTF-8 Plain Text</font></p><p><font face="Tahoma" size="1">Duration : 22 min 26 s</font></p><p><font face="Tahoma" size="1">Bit rate : 93 b/s</font></p><p><font face="Tahoma" size="1">Count of elements : 401</font></p><p><font face="Tahoma" size="1">Stream size : 15.4 KiB (0%)</font></p><p><font face="Tahoma" size="1">Title : Italian</font></p><p><font face="Tahoma" size="1">Language : Italian</font></p><p><font face="Tahoma" size="1">Default : No</font></p><p><font face="Tahoma" size="1">Forced : No</font></p><p><font face="Tahoma" size="1">
  7. </font></p><p><font face="Tahoma" size="1">Text #5</font></p><p><font face="Tahoma" size="1">ID : 7</font></p><p><font face="Tahoma" size="1">Format : UTF-8</font></p><p><font face="Tahoma" size="1">Codec ID : S_TEXT/UTF8</font></p><p><font face="Tahoma" size="1">Codec ID/Info : UTF-8 Plain Text</font></p><p><font face="Tahoma" size="1">Duration : 22 min 25 s</font></p><p><font face="Tahoma" size="1">Bit rate : 103 b/s</font></p><p><font face="Tahoma" size="1">Count of elements : 442</font></p><p><font face="Tahoma" size="1">Stream size : 17.0 KiB (0%)</font></p><p><font face="Tahoma" size="1">Title : German</font></p><p><font face="Tahoma" size="1">Language : German</font></p><p><font face="Tahoma" size="1">Default : No</font></p><p><font face="Tahoma" size="1">Forced : No</font></p><p><font face="Tahoma" size="1">
  8. </font></p><p><font face="Tahoma" size="1">Text #6</font></p><p><font face="Tahoma" size="1">ID : 8</font></p><p><font face="Tahoma" size="1">Format : UTF-8</font></p><p><font face="Tahoma" size="1">Codec ID : S_TEXT/UTF8</font></p><p><font face="Tahoma" size="1">Codec ID/Info : UTF-8 Plain Text</font></p><p><font face="Tahoma" size="1">Duration : 22 min 26 s</font></p><p><font face="Tahoma" size="1">Bit rate : 86 b/s</font></p><p><font face="Tahoma" size="1">Count of elements : 435</font></p><p><font face="Tahoma" size="1">Stream size : 14.3 KiB (0%)</font></p><p><font face="Tahoma" size="1">Title : Brazilian Portuguese</font></p><p><font face="Tahoma" size="1">Language : Portuguese</font></p><p><font face="Tahoma" size="1">Default : No</font></p><p><font face="Tahoma" size="1">Forced : No</font></p><p><font face="Tahoma" size="1">
  9. </font></p><p><font face="Tahoma" size="1">Text #7</font></p><p><font face="Tahoma" size="1">ID : 9</font></p><p><font face="Tahoma" size="1">Format : UTF-8</font></p><p><font face="Tahoma" size="1">Codec ID : S_TEXT/UTF8</font></p><p><font face="Tahoma" size="1">Codec ID/Info : UTF-8 Plain Text</font></p><p><font face="Tahoma" size="1">Duration : 22 min 37 s</font></p><p><font face="Tahoma" size="1">Bit rate : 117 b/s</font></p><p><font face="Tahoma" size="1">Count of elements : 600</font></p><p><font face="Tahoma" size="1">Stream size : 19.4 KiB (0%)</font></p><p><font face="Tahoma" size="1">Title : English [SDH]</font></p><p><font face="Tahoma" size="1">Language : English</font></p><p><font face="Tahoma" size="1">Default : No</font></p><p><font face="Tahoma" size="1">Forced : No</font></p><p><font face="Tahoma" size="1">
  10. </font></p><p><font face="Tahoma" size="1">Text #8</font></p><p><font face="Tahoma" size="1">ID : 10</font></p><p><font face="Tahoma" size="1">Format : UTF-8</font></p><p><font face="Tahoma" size="1">Codec ID : S_TEXT/UTF8</font></p><p><font face="Tahoma" size="1">Codec ID/Info : UTF-8 Plain Text</font></p><p><font face="Tahoma" size="1">Duration : 22 min 26 s</font></p><p><font face="Tahoma" size="1">Bit rate : 90 b/s</font></p><p><font face="Tahoma" size="1">Count of elements : 453</font></p><p><font face="Tahoma" size="1">Stream size : 14.9 KiB (0%)</font></p><p><font face="Tahoma" size="1">Title : Spanish</font></p><p><font face="Tahoma" size="1">Language : Spanish</font></p><p><font face="Tahoma" size="1">Default : No</font></p><p><font face="Tahoma" size="1">Forced : No</font></p><p><font face="Tahoma" size="1">
  11. </font></p><p><font face="Tahoma" size="1">Text #9</font></p><p><font face="Tahoma" size="1">ID : 11</font></p><p><font face="Tahoma" size="1">Format : UTF-8</font></p><p><font face="Tahoma" size="1">Codec ID : S_TEXT/UTF8</font></p><p><font face="Tahoma" size="1">Codec ID/Info : UTF-8 Plain Text</font></p><p><font face="Tahoma" size="1">Duration : 22 min 18 s</font></p><p><font face="Tahoma" size="1">Bit rate : 114 b/s</font></p><p><font face="Tahoma" size="1">Count of elements : 574</font></p><p><font face="Tahoma" size="1">Stream size : 18.6 KiB (0%)</font></p><p><font face="Tahoma" size="1">Title : English</font></p><p><font face="Tahoma" size="1">Language : English</font></p><p><font face="Tahoma" size="1">Default : No</font></p><p><font face="Tahoma" size="1">Forced : No</font></p><p><font face="Tahoma" size="1">
  12. </font></p><p><font face="Tahoma" size="1">Menu</font></p><p><font face="Tahoma" size="1">00:00:00.000 : en:Amazon Original</font></p><p><font face="Tahoma" size="1">00:00:05.000 : en:Title Sequence</font></p><p><font face="Tahoma" size="1">00:00:09.000 : en:The Munsingers have a number of unexpected guests</font></p><p><font face="Tahoma" size="1">00:10:36.000 : en:Ellie makes an announcement</font></p><p><font face="Tahoma" size="1">00:16:11.000 : en:Alan and Ellie patch things up</font></p><p><font face="Tahoma" size="1">00:17:15.000 : en:Sidney gets pulled over</font></p><p><font face="Tahoma" size="1">00:21:18.000 : en:Sidney thinks about writing a novel</font></p><p><font face="Tahoma" size="1">00:22:45.000 : en:End Credits</font></p>
复制代码


蓝光高清网提示您  点击下方附件名称  马上开始下载


六度危机/六场危事4k Crisis.In.Six.Scenes.S01.2160p.AMZN.WEBRip.DDP5.1.x265.美剧下载


六场危事4k Crisis.In.Six.Scenes.S01.2160p.AMZN.WEBRip.DDP5.1.x265【8.49 GB】
六场危事4k Crisis.In.Six.Scenes.S01.2160p.AMZN.WEBRip.DDP5.1.x265-iKA[rar.torrent (文件大小:43.46 KB)

加入蓝光高清网VIP会员  无限制下载本站所有资源---点这里

资源下载、资源播放、字幕使用、无法下载等常见问题---点这里
回复

使用道具 举报

精彩评论1

gdlmxia 发表于 2021-2-24 23:21:40 | 显示全部楼层
太好啦&萬分感謝版主的無私發佈分享%
回复 支持 反对

使用道具 举报

您需要登录后才可以回帖 登录 | 立即注册

本版积分规则

烧友之家(蓝光高清网)本站内容部分由用户自主分享和转载自互联网,转载目的在于传递更多信息,并不代表本网赞同其观点和对其真实性负责。 如有侵权、违反国家法律政策行为,请联系我们,我们会第一时间及时清除和处理!
蓝光高清网 综合资讯平台
关注我们
  • 官方微信公众号
  • 扫码下载官方APP

X3.4 Licensed© 2001-2013 蓝光高清网 烧友之家APP |网站地图