[剧情] 造物弄人/创生/创造/达尔文传 Creation.2009.1080p.BluRay.x264.DTS-FGT 7.58GB

[复制链接]
蓝鸟VIP会员 永久VIP 发表于 2019-8-21 23:20:43 | 显示全部楼层 |阅读模式 打印 上一主题 下一主题

马上注册,轻松下载,海量资源,让你轻松玩转社区。

您需要 登录 才可以下载或查看,没有帐号?立即注册

x


◎译  名 造物弄人/创生/创造/达尔文传
◎片  名 Creation
◎年  代 2009
◎国  家 英国
◎类  别 剧情/传记
◎语  言 英语
◎上映日期 2009-09-25
◎IMDb评分  6.8/10 from 10,624 users
◎IMDb链接  http://www.imdb.com/title/tt0974014/
◎豆瓣评分 7.4/10 from 2,740 users
◎豆瓣链接 http://movie.douban.com/subject/3205567/
◎片  长 108 分钟
◎导  演 乔恩·阿米尔 Jon Amiel
◎主  演 保罗·贝坦尼 Paul Bettany
      Ian Kelly
      盖伊·亨利 Guy Henry
      Martha West
      Anabolena Rodriguez
      Paul Campbell
      Zak Davies
      Teresa Churcher
      詹妮弗·康纳利 Jennifer Connelly
      Freya Parks
      吉姆·卡特 Jim Carter
      Christopher Dunkin
      Gene Goodman
      Harrison Sansostri
      本尼迪克特·康伯巴奇 Benedict Cumberbatch
◎简  介
  在一个风景如画的英国乡村,自然学家查尔斯·达尔文(保罗·贝坦尼 Paul Bettany 饰)与妻女一起过着恬静的生活。他十岁的大女儿安妮对世界充满好奇,达尔文便教予她很多自然和科学知识,其中还包括他的进化论,然而在世人都相信上帝乃造物主的当时,女儿口中的进化论无疑是危险的,以至于令她被家庭教师体罚,就连达尔文深爱的妻子艾玛(詹妮弗·康纳利 Jennifer Connelly 饰)也无法认同他的观念和研究。更令达尔文受创的是,不久后,小安妮因生病早夭,唯一一个支持他完成学说的力量之源也黯淡了,整理《物种起源》手稿的工作变得犹如逆行荆棘,举步维艰……
  本片改编自达尔文第三代玄孙兰德尔·凯恩斯(Randal Keynes)的传记小说《安妮的盒子》。
Video
ID                                       : 1
Format                                   : AVC
Format/Info                              : Advanced Video Codec
Format profile                           : [email protected]
Format settings, CABAC                   : Yes
Format settings, ReFrames                : 11 frames
Codec ID                                 : V_MPEG4/ISO/AVC
Duration                                 : 1h 48mn
Bit rate                                 : 8 500 Kbps
Width                                    : 1 920 pixels
Height                                   : 800 pixels
Display aspect ratio                     : 2.40:1
Frame rate mode                          : Constant
Frame rate                               : 23.976 fps
Color space                              : YUV
Chroma subsampling                       : 4:2:0
Bit depth                                : 8 bits
Scan type                                : Progressive
Bits/(Pixel*Frame)                       : 0.231
Stream size                              : 6.28 GiB (83%)
Writing library                          : x264 core 98 r1649 20cbe10
Encoding settings                        : cabac=1 / ref=11 / deblock=1:-3:-2 / analyse=0x3:0x133 / me=umh / subme=9 / psy=1 / psy_rd=1.00:0.00 / mixed_ref=1 / me_range=64 / chroma_me=1 / trellis=2 / 8x8dct=1 / cqm=0 / deadzone=21,11 / fast_pskip=1 / chroma_qp_offset=-4 / threads=4 / sliced_threads=0 / nr=0 / decimate=1 / interlaced=0 / constrained_intra=0 / bframes=3 / b_pyramid=2 / b_adapt=2 / b_bias=0 / direct=3 / weightb=1 / weightp=2 / keyint=250 / keyint_min=25 / scenecut=40 / intra_refresh=0 / rc_lookahead=40 / rc=2pass / mbtree=1 / bitrate=8500 / ratetol=1.0 / qcomp=0.60 / qpmin=10 / qpmax=51 / qpstep=4 / cplxblur=20.0 / qblur=0.5 / vbv_maxrate=50000 / vbv_bufsize=62500 / ip_ratio=1.40 / aq=1:1.00 / nal_hrd=none
Language                                 : English
Default                                  : No
Forced                                   : No
Audio
ID                                       : 2
Format                                   : DTS
Format/Info                              : Digital Theater Systems
Mode                                     : 16
Format settings, Endianness              : Big
Codec ID                                 : A_DTS
Duration                                 : 1h 48mn
Bit rate mode                            : Constant
Bit rate                                 : 1 509 Kbps
Channel(s)                               : 6 channels
Channel positions                        : Front: L C R, Side: L R, LFE
Sampling rate                            : 48.0 KHz
Bit depth                                : 24 bits
Compression mode                         : Lossy
Stream size                              : 1.14 GiB (15%)
Language                                 : English
Default                                  : Yes
Forced                                   : No
Menu
00:00:00.000                             : :1
00:08:05.318                             : :2
00:16:55.472                             : :3
00:20:53.377                             : :4
00:27:02.286                             : :5
00:34:47.293                             : :6
00:41:15.723                             : :7
00:47:52.411                             : :8
00:54:46.574                             : :9
01:04:02.171                             : :10
01:08:10.795                             : :11
01:13:20.896                             : :12
01:20:33.370                             : :13
01:25:54.566                             : :14
01:33:15.589                             : :15
01:42:11.750                             : :16

精彩剧照


                                       

蓝光高清网提示您 点击下方附件名称 马上开始下载



温馨提示:
本站资源优先使用迅雷下载,迅雷会员下载,速度基本可以跑满宽带
如果遇到无资源或者版权问题无法下载,推荐使用115网盘离线下载(点击查看115网盘离线下载教程


  • 该资源需要您回复以后 刷新网页进行下载操作

  • 1、Creation.2009.1080p.BluRay.x264.DTS-FGT.torrent 76KB 已下载 0 次

加入蓝光高清网VIP会员  无限制下载本站所有资源---点此加入

资源下载、资源播放、字幕使用、无法下载等常见问题---点这里

回复

使用道具 举报

懒得打字嘛,点击右侧快捷回复
高级模式
B Color Image Link Quote Code Smilies 上传

本版积分规则

关注0

粉丝0

帖子66561

发布主题
最新电影 论坛
广告位
联系我们
点击这里联系客服

服务时间:
周一到周日8:00-23:30

  • 打开微信扫一扫
    关注公众号

  • 手机QQ扫一扫
    添加客服

Archiver手机版蓝光高清网 ( 渝ICP备18006373号-2 )|网站地图

Powered by Discuz! X3.4  © 2001-2013 Comsenz Inc.