游客您好
第三方账号登陆
  • 点击联系客服

    在线时间:9:00-18:00

    客服QQ

    1371333023

    电子邮件

    lanniao@1080pro.net
  • 烧友之家APP

    随时掌握烧友资讯

  • 扫描二维码

    关注微信公众号

推荐阅读
蓝鸟
未知星球 | 未知职业
  • 关注0
  • 粉丝2
  • 帖子93845
热议话题
精选帖子
开启左侧

[4K高清美剧] 传说 第一季4k Lore.S01.美剧下载—25GB

[复制链接]
蓝鸟 发表于 2021-2-24 22:55:49 | 显示全部楼层 |阅读模式 打印 上一主题 下一主题
传说

状态:第一季(完结)
上映时间:2017-10-13
类型:恐怖 
地区:美国
导演:达内尔·马丁 / 托马斯·J.怀特 / 尼克·科普斯 / 迈克尔·E·萨特拉米斯
主演:Aaron Mahnke / 科鲁姆·费奥瑞 / 亚当·戈德堡 / 罗伯特·帕特里克 / 霍兰·罗登
画质标准:4K(3840x2160) 封装音轨:MKV 音轨编码:其他DD
豆瓣评分:6.6分

加入蓝光高清网,轻松下载最新4k资源

您需要 登录 才可以下载或查看,没有帐号?立即注册

x
口头传说 / 走进传说/传说 第一季4k Lore.S01.2160p.AMZN.WEB-DL.x265.10bit.HDR10plus.DDP5.1.美剧信息
Video
ID : 1
Format : HEVC
Format/Info : High Efficiency Video Coding
Format profile : Main 10@L5@Main
HDR format : SMPTE ST 2094 App 4, Version 0, HDR10 compatible
Codec ID : V_MPEGH/ISO/HEVC
Duration : 53 min 55 s
Bit rate : 14.4 Mb/s
Width : 3 840 pixels
Height : 2 160 pixels
Display aspect ratio : 16:9
Frame rate mode : Constant
Frame rate : 23.976 (24000/1001) FPS
Standard : NTSC
Color space : YUV
Chroma subsampling : 4:2:0 (Type 2)
Bit depth : 10 bits
Bits/(Pixel*Frame) : 0.072
Stream size : 5.42 GiB (96%)
Default : Yes
Forced : No
Color range : Limited
Color primaries : BT.2020
Transfer characteristics : PQ
Matrix coefficients : BT.2020 non-constant
Mastering display color primaries : Display P3
Mastering display luminance : min: 0.0001 cd/m2, max: 1000 cd/m2
Maximum Content Light Level : 999 cd/m2
Maximum Frame-Average Light Level : 678 cd/m2


Audio
ID : 2
Format : E-AC-3
Format/Info : Enhanced AC-3
Commercial name : Dolby Digital Plus
Codec ID : A_EAC3
Duration : 53 min 55 s
Bit rate mode : Constant
Bit rate : 640 kb/s
Channel(s) : 6 channels
Channel layout : L R C LFE Ls Rs
Sampling rate : 48.0 kHz
Frame rate : 31.250 FPS (1536 SPF)
Compression mode : Lossy
Stream size : 247 MiB (4%)
Title : English
Language : English
Service kind : Complete Main
Default : No
Forced : No


Text #1
ID : 3
Format : UTF-8
Codec ID : S_TEXT/UTF8
Codec ID/Info : UTF-8 Plain Text
Duration : 52 min 21 s
Bit rate : 44 b/s
Count of elements : 543
Stream size : 17.1 KiB (0%)
Title : French
Language : French
Default : No
Forced : No


蓝光高清网提示您  点击下方附件名称  马上开始下载


口头传说 / 走进传说/传说 第一季4k Lore.S01.2160p.AMZN.WEB-DL.x265.10bit.HDR10plus.DDP5.1.美剧下载


传说 第一季4k Lore.S01.2160p.AMZN.WEB-DL.x265.10bit.HDR10plus.DDP5.1【25.00 GB】
传说 第一季4k Lore.S01.2160p.AMZN.WEB-DL.x265.10bit.HDR10plus.DDP5.1-iKA[.torrent (文件大小:63.44 KB)
加入蓝光高清网VIP会员  无限制下载本站所有资源---点这里

资源下载、资源播放、字幕使用、无法下载等常见问题---点这里
回复

使用道具 举报

精彩评论4

yuzhong000 发表于 2021-3-3 00:53:39 | 显示全部楼层
点赞,感谢楼主
回复 支持 反对

使用道具 举报

ggang1 发表于 2021-3-3 13:44:40 | 显示全部楼层

非常感谢蓝光高清网给大家的享乐4k,祝蓝光高清网越办越好!
回复 支持 反对

使用道具 举报

恭恭敬敬 发表于 2021-3-9 08:23:34 | 显示全部楼层
谢谢楼主分享。
回复 支持 反对

使用道具 举报

大风车呀哈吱哟 发表于 2021-3-11 22:54:41 | 显示全部楼层
感谢大佬分享
回复 支持 反对

使用道具 举报

您需要登录后才可以回帖 登录 | 立即注册

本版积分规则

烧友之家(蓝光高清网)本站内容部分由用户自主分享和转载自互联网,转载目的在于传递更多信息,并不代表本网赞同其观点和对其真实性负责。 如有侵权、违反国家法律政策行为,请联系我们,我们会第一时间及时清除和处理!
蓝光高清网 综合资讯平台
关注我们
  • 官方微信公众号
  • 扫码下载官方APP

X3.4 Licensed© 2001-2013 蓝光高清网 烧友之家APP |网站地图