游客您好
第三方账号登陆
  • 点击联系客服

    在线时间:9:00-18:00

    客服QQ

    1371333023

    电子邮件

    lanniao@1080pro.net
  • 烧友之家APP

    随时掌握烧友资讯

  • 扫描二维码

    关注微信公众号

推荐阅读
蓝鸟
未知星球 | 未知职业
  • 关注0
  • 粉丝2
  • 帖子93845
热议话题
精选帖子
开启左侧

[4K高清美剧] 馈 第一季4k The.Feed.2019.S01.2160p.美剧下载—58.92 GB

[复制链接]
蓝鸟 发表于 2021-2-24 22:58:20 | 显示全部楼层 |阅读模式 打印 上一主题 下一主题

状态:第一季(完结)
上映时间:2019-11-22
类型:剧情 科幻 
地区:美国
导演:卡尔·蒂贝茨 / 米沙·曼森-史密斯 / 吉尔·罗伯森 / 科林·蒂格 / 汀治·克里希南
主演:盖·布耐特 / 大卫·休里斯 / 沙奎尔·阿里-耶布阿 / 米歇尔·费尔利 / 奥赛·伊克希尔
画质标准:4K(3840x2160) 封装音轨:MKV 音轨编码:其他DD
豆瓣评分:5.8分

加入蓝光高清网,轻松下载最新4k资源

您需要 登录 才可以下载或查看,没有帐号?立即注册

x
馈联/馈 第一季4k The.Feed.2019.S01.2160p.AMZN.WEB-DL.x265.10bit.HDR10plus.DDP5.1.美剧信息
Video
ID : 1
Format : HEVC
Format/Info : High Efficiency Video Coding
Format profile : Main 10@L5@Main
HDR format : SMPTE ST 2094 App 4, Version 0, HDR10 compatible
Codec ID : V_MPEGH/ISO/HEVC
Duration : 57 min 26 s
Bit rate : 14.7 Mb/s
Width : 3 840 pixels
Height : 2 160 pixels
Display aspect ratio : 16:9
Frame rate mode : Constant
Frame rate : 24.000 FPS
Standard : NTSC
Color space : YUV
Chroma subsampling : 4:2:0 (Type 2)
Bit depth : 10 bits
Bits/(Pixel*Frame) : 0.074
Stream size : 5.90 GiB (96%)
Default : Yes
Forced : No
Color range : Limited
Color primaries : BT.2020
Transfer characteristics : PQ
Matrix coefficients : BT.2020 non-constant
Mastering display color primaries : Display P3
Mastering display luminance : min: 0.0001 cd/m2, max: 1000 cd/m2
Maximum Content Light Level : 957 cd/m2
Maximum Frame-Average Light Level : 422 cd/m2


Audio
ID : 2
Format : E-AC-3
Format/Info : Enhanced AC-3
Commercial name : Dolby Digital Plus
Codec ID : A_EAC3
Duration : 57 min 26 s
Bit rate mode : Constant
Bit rate : 640 kb/s
Channel(s) : 6 channels
Channel layout : L R C LFE Ls Rs
Sampling rate : 48.0 kHz
Frame rate : 31.250 FPS (1536 SPF)
Compression mode : Lossy
Stream size : 263 MiB (4%)
Title : English
Language : English
Service kind : Complete Main
Default : No
Forced : No


蓝光高清网提示您  点击下方附件名称  马上开始下载


馈联/馈 第一季4k The.Feed.2019.S01.2160p.AMZN.WEB-DL.x265.10bit.HDR10plus.DDP5.1.美剧下载


馈 第一季4k The.Feed.2019.S01.2160p.AMZN.WEB-DL.x265.10bit.HDR10plus.DDP5.1【58.92 GB】
馈4k The.Feed.2019.S01.2160p.AMZN.WEB-DL.x265.10bit.HDR10plus.DDP5.1-iKA[.torrent (文件大小:148.59 KB)
加入蓝光高清网VIP会员  无限制下载本站所有资源---点这里

资源下载、资源播放、字幕使用、无法下载等常见问题---点这里
回复

使用道具 举报

精彩评论3

jscstww 发表于 2021-2-28 09:23:25 | 显示全部楼层
非常感谢蓝光高清网分享的各种知识和资源,祝蓝光高清网越来越好
回复 支持 反对

使用道具 举报

恭恭敬敬 发表于 2021-3-9 08:17:42 | 显示全部楼层
谢谢楼主分享,好网站。
回复 支持 反对

使用道具 举报

xo555手机认证 发表于 7 天前 | 显示全部楼层

感谢分享!!!!
回复

使用道具 举报

您需要登录后才可以回帖 登录 | 立即注册

本版积分规则

烧友之家(蓝光高清网)本站内容部分由用户自主分享和转载自互联网,转载目的在于传递更多信息,并不代表本网赞同其观点和对其真实性负责。 如有侵权、违反国家法律政策行为,请联系我们,我们会第一时间及时清除和处理!
蓝光高清网 综合资讯平台
关注我们
  • 官方微信公众号
  • 扫码下载官方APP

X3.4 Licensed© 2001-2013 蓝光高清网 烧友之家APP |网站地图