游客您好
第三方账号登陆
  • 点击联系客服

    在线时间:9:00-18:00

    客服QQ

    1371333023

    电子邮件

    lanniao@1080pro.net
  • 烧友之家APP

    随时掌握烧友资讯

  • 扫描二维码

    关注微信公众号

推荐阅读
蓝鸟
未知星球 | 未知职业
  • 关注0
  • 粉丝2
  • 帖子93845
热议话题
精选帖子
开启左侧

[4K高清美剧] 熙德 4k El.Cid.S01.SPANISH.2160p.美剧下载—31.04 GB

[复制链接]
蓝鸟 发表于 2021-2-24 23:01:04 | 显示全部楼层 |阅读模式 打印 上一主题 下一主题
熙德

状态:第一季(完结)
上映时间:2020-12-18
类型:剧情 
地区:其他
导演:路易斯·阿兰兹 / José Velasco / 阿道弗·马丁内斯·佩雷斯
主演:海因米·洛伦特 / Pablo Álvarez / Sarah Perles / Daniel Albaladejo / 卡洛斯·巴登
画质标准:4K(3840x2160) 封装音轨:MKV 音轨编码:其他DD
豆瓣评分:7.6分

加入蓝光高清网,轻松下载最新4k资源

您需要 登录 才可以下载或查看,没有帐号?立即注册

x
锡德 / 西德传 / 圣剑 / 万世英雄/熙德4k El.Cid.S01.SPANISH.2160p.AMZN.WEB-DL.x265.10bit.HDR10plus.DDP5.1.美剧信息
Video
ID : 1
Format : HEVC
Format/Info : High Efficiency Video Coding
Format profile : Main 10@L5@Main
HDR format : SMPTE ST 2094 App 4, Version 1, HDR10+ Profile B compatible
Codec ID : V_MPEGH/ISO/HEVC
Duration : 1 h 12 min
Bit rate : 14.6 Mb/s
Width : 3 840 pixels
Height : 1 920 pixels
Display aspect ratio : 2.000
Frame rate mode : Constant
Frame rate : 25.000 FPS
Color space : YUV
Chroma subsampling : 4:2:0
Bit depth : 10 bits
Bits/(Pixel*Frame) : 0.079
Stream size : 7.36 GiB (96%)
Default : Yes
Forced : No
Color range : Limited
Color primaries : BT.2020
Transfer characteristics : PQ
Matrix coefficients : BT.2020 non-constant
Mastering display color primaries : Display P3
Mastering display luminance : min: 0.0001 cd/m2, max: 1000 cd/m2
Maximum Content Light Level : 901 cd/m2
Maximum Frame-Average Light Level : 326 cd/m2


Audio
ID : 2
Format : E-AC-3
Format/Info : Enhanced AC-3
Commercial name : Dolby Digital Plus
Codec ID : A_EAC3
Duration : 1 h 12 min
Bit rate mode : Constant
Bit rate : 640 kb/s
Channel(s) : 6 channels
Channel layout : L R C LFE Ls Rs
Sampling rate : 48.0 kHz
Frame rate : 31.250 FPS (1536 SPF)
Compression mode : Lossy
Stream size : 330 MiB (4%)
Title : Castilian
Language : Spanish
Service kind : Complete Main
Default : No
Forced : No


蓝光高清网提示您  点击下方附件名称  马上开始下载


锡德 / 西德传 / 圣剑 / 万世英雄/熙德4k El.Cid.S01.SPANISH.2160p.AMZN.WEB-DL.x265.10bit.HDR10plus.DDP5.1.美剧下载


熙德4k El.Cid.S01.SPANISH.2160p.AMZN.WEB-DL.x265.10bit.HDR10plus.DDP5.1【31.04 GB】
熙德4k El.Cid.S01.SPANISH.2160p.AMZN.WEB-DL.x265.10bit.HDR10plus.DDP5.1-i.torrent (文件大小:78.48 KB)

加入蓝光高清网VIP会员  无限制下载本站所有资源---点这里

资源下载、资源播放、字幕使用、无法下载等常见问题---点这里
回复

使用道具 举报

精彩评论3

gdlmxia 发表于 2021-2-26 20:42:33 | 显示全部楼层
太好啦&萬分感謝版主的無私發佈分享%
回复 支持 反对

使用道具 举报

yuzhong000 发表于 2021-3-3 00:45:10 | 显示全部楼层
发布好资源
回复 支持 反对

使用道具 举报

恭恭敬敬 发表于 2021-3-9 08:16:08 | 显示全部楼层
先谢楼主分享。
回复 支持 反对

使用道具 举报

您需要登录后才可以回帖 登录 | 立即注册

本版积分规则

烧友之家(蓝光高清网)本站内容部分由用户自主分享和转载自互联网,转载目的在于传递更多信息,并不代表本网赞同其观点和对其真实性负责。 如有侵权、违反国家法律政策行为,请联系我们,我们会第一时间及时清除和处理!
蓝光高清网 综合资讯平台
关注我们
  • 官方微信公众号
  • 扫码下载官方APP

X3.4 Licensed© 2001-2013 蓝光高清网 烧友之家APP |网站地图