游客您好
第三方账号登陆
  • 点击联系客服

    在线时间:9:00-18:00

    客服QQ

    1371333023

    电子邮件

    lanniao@1080pro.net
  • 烧友之家APP

    随时掌握烧友资讯

  • 扫描二维码

    关注微信公众号

推荐阅读
蓝鸟
未知星球 | 未知职业
  • 关注0
  • 粉丝2
  • 帖子93845
精选帖子
开启左侧

我很在乎 4k I.Care.a.Lot.2020.2160p.AMZN.WEB-DL.x265.10bit.HDR10plus.DDP5.1.电影下载—12.84 GB

[复制链接]
蓝鸟 发表于 2021-2-25 09:03:43 | 显示全部楼层 |阅读模式 打印 上一主题 下一主题
我很在乎
上映时间:2020年
类型:喜剧 惊悚 犯罪 
地区:英国 
导演:J·布莱克森
主演:裴淳华 / 彼特·丁拉基 / 艾莎·冈萨雷斯 / 黛安·韦斯特 / 克里斯·梅西纳
画质标准:4K HDR  封装音轨:Dolby TrueHD 5.1 
豆瓣评分:6.3分

加入蓝光高清网,轻松下载最新4k资源

您需要 登录 才可以下载或查看,没有帐号?立即注册

x

% ?  b3 H7 p& y7 o. l1 n
% @7 ^) q2 R. q0 G. r* }简       介
8 M- D, F, ~- |; Q! z  y2 A/ m6 y
7 X5 f. u/ J+ F1 e) m  玛拉·葛蕾森(荣获奥斯卡金像奖提名的裴淳华饰)有着鲨鱼般的自信,是法院为数十名老人指定的监护人,她通过可疑但合法的手段攫取了这些人的财产,并狡猾地将这些财产据为己有。玛拉和她的商业伙伴兼爱人弗兰(艾莎·冈萨雷斯饰)最近盯上的“肥羊”名叫詹妮弗·彼得森(两届奥斯卡金像奖得主黛安·韦斯特饰),她是一名富有的退休人员,没有继承人,也没有陪伴左右的家人。然而,就在她们故技重施并进展顺利时,她们发现自己的目标也隐藏着不可告人的秘密,并且与性格暴躁的黑帮成员(金球奖得主彼特·丁拉基饰)联系甚密,因此玛拉被迫加入一场弱肉强食的游戏中,并且游戏中毫无公平可言。& v) q2 [; f4 ^5 H/ @1 ?( Q4 r* i

. n. q+ T% d* }. E) ^: X

& k0 G. u. G$ o) A影片参数- c( q3 Q! W/ A' a
完美监护人(港) / 完美监护(台) / 诈欺女王(台)/我很在乎4k I.Care.a.Lot.2020.2160p.AMZN.WEB-DL.x265.10bit.HDR10plus.DDP5.1.电影信息5 h2 s$ o4 v! S
Video
) E+ S& Z+ m" `, E  LID : 13 q/ V# Y& J/ ]% h# o
Format : HEVC0 M- F: C) H; \* X
Format/Info : High Efficiency Video Coding
2 w! A/ F6 d+ r% W/ V& l' G6 MFormat profile : Main 10@L5@Main
( j' n/ z1 x( E0 _HDR format : SMPTE ST 2094 App 4, Version 1, HDR10+ Profile B compatible9 D& I9 c( Y& o$ p4 x' s- _/ T9 Y
Codec ID : V_MPEGH/ISO/HEVC
( E% P/ H( L6 E1 g1 U9 M& FDuration : 1 h 58 min9 i; F% u$ k% Y
Bit rate : 14.9 Mb/s- `) Q) Y( \( U5 N5 U5 p$ C
Width : 3 840 pixels0 R$ _# u! ?3 Z& @
Height : 1 600 pixels
5 }; z9 Z8 z5 l; q& _/ W% ?9 QDisplay aspect ratio : 2.40:1
$ H; ]8 _, @8 d3 ]7 ?Frame rate mode : Constant; l1 M% W1 c3 ~- x5 I" d
Frame rate : 23.976 (24000/1001) FPS1 M+ S' P2 P) ]8 W
Color space : YUV% a4 F, O& m! N. f
Chroma subsampling : 4:2:0
7 X7 z- w5 U5 s1 M& ?4 ZBit depth : 10 bits
0 _* U( F9 v8 g3 R( iBits/(Pixel*Frame) : 0.101! y* {1 C& G; J6 ~% ^6 V* v- h% u; t: a
Stream size : 12.3 GiB (96%)$ `+ j. M, x! y' O& _% `; u5 Z
Language : English! A, v+ Y/ R6 M
Default : Yes3 E8 _6 Y0 t5 z  o  C5 s: x
Forced : No
4 C, Y: s( k2 ~. H) F. s% E8 ?Color range : Limited
9 C: }$ o& u6 L6 I) NColor primaries : BT.20209 C- ?& h% A( c$ [
Transfer characteristics : PQ: J  x- _; U, f" D; p8 \, [5 H
Matrix coefficients : BT.2020 non-constant3 R6 p: V. }% S3 z
Mastering display color primaries : Display P3
5 H& v% |; k5 ~& j" Z7 pMastering display luminance : min: 0.0001 cd/m2, max: 1000 cd/m27 r, B! \, ?* \% j8 T/ C* F2 j
Maximum Content Light Level : 510 cd/m2
  j8 V: P3 [6 I% vMaximum Frame-Average Light Level : 279 cd/m2
/ U" z) C' u! T9 q2 G/ Y! W/ j+ X
! X$ N" E2 [$ w+ X- ^% H

. O( X% X2 Q% k# e* p9 [Audio4 }8 T8 g& p$ P+ O
ID : 2& @, x+ h! L( k, e$ Z4 d4 i) g
Format : E-AC-3
5 x, {' y. k% NFormat/Info : Enhanced AC-3/ o2 v  `. t& V! n2 W
Commercial name : Dolby Digital Plus& N, ?! D. i( Q" r8 }+ R' ~
Codec ID : A_EAC3
5 v  Q6 F* T+ A/ k7 gDuration : 1 h 58 min
5 S2 P7 U+ E7 n  }- s7 HBit rate mode : Constant
  Z$ G' |/ L: q" n) `4 d8 iBit rate : 640 kb/s
3 `) w% E% V9 D/ z0 X7 J, LChannel(s) : 6 channels
" ?- V  t2 i+ t, aChannel layout : L R C LFE Ls Rs1 q6 ]' O2 z! O( ~% T  U' [
Sampling rate : 48.0 kHz% v; a1 g: ~# O; ?
Frame rate : 31.250 FPS (1536 SPF): J: q6 l* D4 L& o: |6 b: {& q
Compression mode : Lossy
( w* g. n' G5 b+ {Stream size : 543 MiB (4%)
3 G3 @7 v/ D8 k$ c( WLanguage : English
, p' }' D, o+ TService kind : Complete Main" d8 E7 H) J: h7 o: ]
Default : Yes0 E+ F" U  |& N1 p/ O
Forced : No
: {2 H4 y& K" _( N& l
, X2 D0 e' p# d$ H. _! {

9 L; ~" ]' }, n/ }) U9 eText #1
8 E, a$ L, Z$ NID : 3% \6 R# N6 u/ b* U! J
Format : UTF-8
3 r: v6 S( H- ~+ ?6 VCodec ID : S_TEXT/UTF83 f" b: h: V: \  o  q" t) u
Codec ID/Info : UTF-8 Plain Text# W4 f7 E$ L. N) I7 t
Duration : 1 h 51 min1 S( u' _; \5 u' X
Bit rate : 53 b/s
7 D# g$ i& s# F' _7 Q# TCount of elements : 1230+ P" E2 W* [! x2 N3 K2 J" R# R
Stream size : 43.6 KiB (0%)
% j" z$ x) P) w/ N% R; L0 k% k5 nLanguage : English, P3 t+ R4 _* E% C, x
Default : No
, r, \1 q; U3 v# QForced : No+ J( i* K+ D; L3 f
7 k! g3 H- U( v3 Q1 i+ n
/ q. b+ q" M+ G  E& P- W4 T% U
Text #2- S/ Q# z- w3 }# \; i. a# l& R/ m
ID : 4( }% N7 x0 f$ L4 d- ^
Format : UTF-8
' c( d) r, `% [; u- qCodec ID : S_TEXT/UTF8
; B9 a: ]+ j! D3 BCodec ID/Info : UTF-8 Plain Text! [6 K. o9 ]6 l1 S- U! X3 B
Duration : 1 h 52 min9 `) g) Z/ ]: C
Bit rate : 56 b/s' ]$ q& z( K1 D) b4 a/ U- p
Count of elements : 1339
0 Q8 H7 s" B7 }3 \Stream size : 46.2 KiB (0%)
5 ~# q; X0 k  a2 u: a4 oTitle : SDH" e6 A; |3 m/ o4 J2 ^* }
Language : English- C: k2 N- Q! @3 C! q
Default : No9 L5 Z5 r% q& y1 S! w! O
Forced : No3 i& L  ?+ U' l. w% t

: Y6 ]( d/ G4 t8 M. o
+ }! p' P1 C  Q3 F. [
Text #3
3 i6 L7 F& q7 w: KID : 5, h$ J% _5 |, a& N  |
Format : UTF-87 K5 @; _1 c8 y1 _3 v
Codec ID : S_TEXT/UTF8
: [5 ~) x% _) V8 wCodec ID/Info : UTF-8 Plain Text- B2 D( ]" f- S
Duration : 1 h 57 min4 I/ g# ~4 ?" X/ n/ q6 q, `1 w/ e' y
Bit rate : 58 b/s
% e: r; W4 E) m7 D! x8 M1 RCount of elements : 1648
/ a0 J, v5 l- M% r6 hStream size : 50.5 KiB (0%)
6 v3 n2 {/ o$ v7 X2 r# bLanguage : French
6 P' H% F9 X4 P# y/ T; o: HDefault : No4 z- E2 d, G  Y, b4 ~( C) @. O4 J4 Y1 ]1 J
Forced : No, P8 P% l3 x9 P

- s2 ~' W1 d" F
) g5 }; @  w2 o6 C; C1 w3 A8 `1 o
Text #4
% u9 F7 ~' X/ f6 T5 c' qID : 64 k$ l$ y" c2 f1 Q1 F
Format : UTF-8
- t3 `: H' r' vCodec ID : S_TEXT/UTF84 O, m8 C, R' i: Q
Codec ID/Info : UTF-8 Plain Text* ^' f+ I5 s0 f0 a; ~) C. v
Duration : 1 h 57 min
) q/ c6 g; u7 a: tBit rate : 44 b/s; H* _" g, }% N. h5 `! |5 Z
Count of elements : 1383
% @: W2 E$ @% b8 g9 |' NStream size : 38.6 KiB (0%)
0 Y: P, w) A% Q, x. N6 H2 Y3 k9 wLanguage : Italian
2 p7 R' w* @8 P5 m" f" FDefault : No
6 X* Y# a, d% I- YForced : No
8 y3 f: T/ s4 g0 \
8 I1 J# t. q  R2 Y) u/ b

! N* c0 z0 Z& z/ z; vMenu
, b: L/ d- j$ t! j00:00:00.000 : en:Amazon Original4 B2 ~" }( }$ M, M  D
00:00:06.000 : en:Studio Logos
0 [2 H: S5 `3 Y3 z5 o$ O1 ~00:00:43.000 : en:Opening Credits, I7 u; I3 a7 B3 K
00:01:09.000 : en:Not good people  G4 \3 j% l/ N: f/ U& C, b% I
00:03:05.000 : en:A day in court
9 b" _; y9 V: w6 h5 i! |' `00:06:29.000 : en:Threats8 O2 T" a; b1 v9 G
00:07:41.000 : en:A day at the office
3 Z  e' F+ E- A: o00:10:10.000 : en:A cherry$ s4 _6 T9 l2 ]) D- y
00:12:57.000 : en:Researching a new client2 Z+ V4 N" b: u+ u
00:15:30.000 : enicking up Mrs. Peterson
, m+ T! `' w6 b$ ?6 X2 p00:22:53.000 : en:Going through the assets! ~, l3 {; h3 ^1 `1 u" w; w1 y
00:26:33.000 : en:Unexpected visitor. i; t4 M. x$ V- K" v
00:27:59.000 : en:Reporting back to the boss2 {5 j5 ]4 m7 s2 u) o5 I
00:31:56.000 : en:The diamonds( |4 ]; o: q" c9 m+ ^
00:33:17.000 : en:Roman finds his mother  @9 p) c* {1 }3 j1 v- L
00:36:01.000 : en:A meeting with Marla3 B& I  U! L( L8 ~. H# n; O
00:44:47.000 : en:The worst mistake she'll ever make
) V8 k! \# j4 H4 o1 }- d9 @00:49:01.000 : en:A trip to the bank" {! L* c! {0 T% T% q% R' v* m
00:50:08.000 : en:A scandal for the judge( e6 s# Q& o/ B% H- u
00:53:38.000 : en:Roman throws a fit& |1 G& [/ T5 m! P) i4 j
00:54:09.000 : en:A tour of the facility
) C* r- ?1 u0 S2 @5 L* }00:54:54.000 : en:The truth about Mrs. Peterson3 `8 ^; K7 O# J/ r2 G+ B2 e
01:00:20.000 : enolice interview
7 C  c  _3 Z7 ]: U01:01:54.000 : en:Calling in a favor
: i! S( I3 Z5 O1 q4 H; i01:03:23.000 : enanic at home
, n& k, F# u+ A5 z) R$ h% j& L01:05:27.000 : en:Marla refuses to lose
2 N( R- z6 l6 [0 G1 t  O3 v01:08:14.000 : en:Moving to a psych facility
: D/ A4 g6 V3 v* S. w$ a01:10:07.000 : en:Fencing the diamonds1 {1 ^4 b! Y; i  s
01:12:25.000 : en:A break in
# G9 d- }6 [% J/ {01:12:55.000 : en:You can't spend money when you're dead. K+ q7 B4 t8 U) y
01:23:04.000 : en:Trying to survive
8 s+ [8 R* R9 w3 a( y" [2 w$ b+ g01:32:38.000 : en:Making a plan
$ Z  I5 Y7 B, ]9 F01:41:38.000 : en:A new opportunity0 b, W' T; t! j# n! f# y2 G
01:48:30.000 : en:A very rich woman
$ p, Q6 w3 E6 E) L" D! g$ _9 N01:52:54.000 : en:End Credits

8 z4 r) s' C, X' S1 [
( B; Q. v6 G* L$ J, H$ ?" q7 x. F6 ~蓝光高清网提示您  点击下方附件名即可开始下载2 `, h# g! B" N' I- \7 o% U

1 r2 r( [5 B9 O, t) L! a* j
2 R+ L) v( N' }8 X, d" [7 Y/ p
完美监护人(港) / 完美监护(台) / 诈欺女王(台)/我很在乎4k I.Care.a.Lot.2020.2160p.AMZN.WEB-DL.x265.10bit.HDR10plus.DDP5.1.电影下载
7 p! `' ^& C. w1 R4 d$ R* D) X2 I: @$ q7 q" u' I$ V5 x: e
我很在乎4k I.Care.a.Lot.2020.2160p.AMZN.WEB-DL.x265.10bit.HDR10plus.DDP5.1【12.84 GB】
+ h4 N1 w8 _' | 我很在乎4k I.Care.a.Lot.2020.2160p.AMZN.WEB-DL.x265.10bit.HDR10plus.DDP5..torrent (文件大小:64.8 KB)

) U7 v. I% i4 L
+ L" o* J/ q% J
加入蓝光高清网VIP会员  无限制下载本站所有资源---点这里

资源下载、资源播放、字幕使用、无法下载等常见问题---点这里
回复

使用道具 举报

精彩评论2

gdlmxia 发表于 2021-2-25 10:44:44 | 显示全部楼层
太好啦&萬分感謝版主的無私發佈分享%
回复 支持 反对

使用道具 举报

yuzhong000 发表于 2021-2-28 13:04:18 | 显示全部楼层
了,找了很久,下载欣赏
回复 支持 反对

使用道具 举报

您需要登录后才可以回帖 登录 | 立即注册

本版积分规则

烧友之家(蓝光高清网)本站内容部分由用户自主分享和转载自互联网,转载目的在于传递更多信息,并不代表本网赞同其观点和对其真实性负责。 如有侵权、违反国家法律政策行为,请联系我们,我们会第一时间及时清除和处理!
蓝光高清网 综合资讯平台
关注我们
  • 官方微信公众号
  • 扫码下载官方APP

X3.4 Licensed© 2001-2013 蓝光高清网 烧友之家APP |网站地图