[动作] 血溅十三号警署 Assault.on.Precinct.13.1976.1080p.BluRay.x264.DTS-FGT 10.79GB

[复制链接]
蓝鸟VIP会员 永久VIP 发表于 2019-8-21 23:21:37 | 显示全部楼层 |阅读模式 打印 上一主题 下一主题

马上注册,轻松下载,海量资源,让你轻松玩转社区。

您需要 登录 才可以下载或查看,没有帐号?立即注册

x


◎译  名 血溅十三号警署/袭击13选区
◎片  名 Assault on Precinct 13
◎年  代 1976
◎国  家 美国
◎类  别 动作/犯罪/悬疑/惊悚
◎语  言 英语
◎上映日期 1976-11-05
◎IMDb评分  7.4/10 from 28,212 users
◎IMDb链接  http://www.imdb.com/title/tt0074156/
◎豆瓣评分 7.2/10 from 1,031 users
◎豆瓣链接 http://movie.douban.com/subject/1292669/
◎片  长 91 分钟
◎导  演 约翰·卡朋特 John Carpenter
◎主  演 Austin Stoker
      Darwin Joston
      Laurie Zimmer
      Martin West
      托尼·伯顿 Tony Burton
      Charles Cyphers
◎简  介
  在少数族裔聚集的加州安德森,一个星期六的凌晨,六名帮派成员被警方击毙。他们的同伙发誓为他们报仇。同一天的下午,警督毕邵普(Austin Stoker 饰)受命看守一间即将废弃的警局,另一方面,在加州的洛克卢塞斯监狱中,以穷凶极恶的罪犯拿破仑·威尔逊(Darwin Joston 饰)为首的三名罪犯将被押解到另间监狱。复仇的帮派团伙在路上随意射杀了一名小女孩,女孩的父亲将一名匪徒杀死,随后逃到毕邵普看守的警局,此时警局当中只有毕邵普和两个女文员,加之此前不久因押解囚犯半路急病,押解车转入这间警局临时停留。此时,警员和囚犯被外面埋伏的帮派分子围堵射杀,毕邵普决定借用威尔逊的力量抵挡警局外的暴徒……
Video
ID                                       : 1
Format                                   : AVC
Format/Info                              : Advanced Video Codec
Format profile                           : [email protected]
Format settings, CABAC                   : Yes
Format settings, ReFrames                : 5 frames
Codec ID                                 : V_MPEG4/ISO/AVC
Duration                                 : 1h 30mn
Bit rate                                 : 15.5 Mbps
Width                                    : 1 920 pixels
Height                                   : 816 pixels
Display aspect ratio                     : 2.35:1
Frame rate mode                          : Constant
Frame rate                               : 23.976 fps
Color space                              : YUV
Chroma subsampling                       : 4:2:0
Bit depth                                : 8 bits
Scan type                                : Progressive
Bits/(Pixel*Frame)                       : 0.413
Stream size                              : 9.62 GiB (89%)
Writing library                          : x264 core 130 r2273 b3065e6
Encoding settings                        : cabac=1 / ref=5 / deblock=1:-3:-3 / analyse=0x3:0x133 / me=umh / subme=11 / psy=1 / psy_rd=1.00:0.00 / mixed_ref=1 / me_range=48 / chroma_me=1 / trellis=2 / 8x8dct=1 / cqm=0 / deadzone=21,11 / fast_pskip=0 / chroma_qp_offset=-2 / threads=16 / lookahead_threads=4 / sliced_threads=0 / nr=0 / decimate=0 / interlaced=0 / bluray_compat=0 / constrained_intra=0 / bframes=10 / b_pyramid=2 / b_adapt=2 / b_bias=0 / direct=3 / weightb=1 / open_gop=0 / weightp=2 / keyint=250 / keyint_min=23 / scenecut=40 / intra_refresh=0 / rc=2pass / mbtree=0 / bitrate=15500 / ratetol=1.0 / qcomp=0.60 / qpmin=0 / qpmax=69 / qpstep=4 / cplxblur=20.0 / qblur=0.5 / ip_ratio=1.40 / pb_ratio=1.30 / aq=1:1.00
Language                                 : English
Default                                  : Yes
Forced                                   : No
Audio
ID                                       : 2
Format                                   : DTS
Format/Info                              : Digital Theater Systems
Mode                                     : 16
Format settings, Endianness              : Big
Codec ID                                 : A_DTS
Duration                                 : 1h 30mn
Bit rate mode                            : Constant
Bit rate                                 : 1 509 Kbps
Channel(s)                               : 6 channels
Channel positions                        : Front: L C R, Side: L R, LFE
Sampling rate                            : 48.0 KHz
Bit depth                                : 16 bits
Compression mode                         : Lossy
Stream size                              : 980 MiB (9%)
Language                                 : English
Default                                  : Yes
Forced                                   : No
Text
ID                                       : 3
Format                                   : UTF-8
Codec ID                                 : S_TEXT/UTF8
Codec ID/Info                            : UTF-8 Plain Text
Language                                 : English
Default                                  : No
Forced                                   : No
Menu
00:00:00.000                             : en:Main Title
00:02:35.613                             : en:A Los Angeles Ghetto
00:06:09.786                             : en:First Night Out
00:08:46.275                             : en:Napoleon Wilson
00:13:33.312                             : en:Father and Daughter
00:15:04.320                             : en:Street Thunder
00:16:37.830                             : enrincint 9, Division 13
00:23:23.402                             : en:Targets
00:25:30.111                             : en:A Talk With Wilson
00:28:37.048                             : en:The Wrong Flavor
00:33:37.265                             : en:Emergency
00:37:23.324                             : enawson\ s Revenge
00:42:07.441                             : en:The Siege
00:51:40.305                             : en:Marked for Something
00:54:27.472                             : en:Second Wave
00:59:03.831                             : en:Julie
01:03:27.512                             : enike Nothing Happened
01:10:20.049                             : enotatoes
01:15:30.526                             : en:Well\ s Flight
01:17:40.322                             : en:To the Basement
01:21:20.500                             : en:Startin\  to Rain
01:23:28.795                             : enast Stand
01:26:20.550                             : en:The Cavalry Arrives
01:29:42.210                             : en:End Credits

精彩剧照


                                       

蓝光高清网提示您 点击下方附件名称 马上开始下载



温馨提示:
本站资源优先使用迅雷下载,迅雷会员下载,速度基本可以跑满宽带
如果遇到无资源或者版权问题无法下载,推荐使用115网盘离线下载(点击查看115网盘离线下载教程


  • 该资源需要您回复以后 刷新网页进行下载操作

  • 1、Assault.on.Precinct.13.1976.1080p.BluRay.x264.DTS-FGT.torrent 55KB 已下载 0 次

加入蓝光高清网VIP会员  无限制下载本站所有资源---点此加入

资源下载、资源播放、字幕使用、无法下载等常见问题---点这里

回复

使用道具 举报

懒得打字嘛,点击右侧快捷回复
高级模式
B Color Image Link Quote Code Smilies 上传

本版积分规则

关注0

粉丝0

帖子66311

发布主题
最新电影 论坛
广告位
联系我们
点击这里联系客服

服务时间:
周一到周日8:00-23:30

  • 打开微信扫一扫
    关注公众号

  • 手机QQ扫一扫
    添加客服

Archiver手机版蓝光高清网 ( 渝ICP备18006373号-2 )|网站地图

Powered by Discuz! X3.4  © 2001-2013 Comsenz Inc.