[动作] 十三刺客 13.Assassins.2010.EXTENDED.1080p.JAPANESE.BluRay.x264.DTS-FGT 17.91GB

[复制链接]
蓝鸟VIP会员 永久VIP 发表于 2019-8-21 23:22:26 | 显示全部楼层 |阅读模式 打印 上一主题 下一主题

马上注册,轻松下载,海量资源,让你轻松玩转社区。

您需要 登录 才可以下载或查看,没有帐号?立即注册

x


◎译  名 十三刺客/13人刺客:殊死血战(台)/13刺客
◎片  名 十三人の刺客
◎年  代 2010
◎国  家 日本/英国
◎类  别 动作/古装
◎语  言 日语
◎上映日期 2010-09-25
◎IMDb评分  7.6/10 from 46,226 users
◎IMDb链接  http://www.imdb.com/title/tt1436045/
◎豆瓣评分 7.7/10 from 8,953 users
◎豆瓣链接 http://movie.douban.com/subject/3726986/
◎片  长 141分钟
◎导  演 三池崇史 Takashi Miike
◎主  演 役所广司 K?ji Yakusho
      山田孝之 Takayuki Yamada
      伊势谷友介 Y?suke Iseya
      泽村一树 Ikki Sawamura
      古田新太 Arata Furuta
      六角精儿 Seiji Rokkaku
      石垣佑磨 Yuma Ishigaki
      高冈苍甫 Sosuke Takaoka
      松方弘树 Hiroki Matsukata
      伊原刚志 Tsuyoshi Ihara
      吹石一惠 Kazue Fukiishi
      稻垣吾郎 Gor? Inagaki
◎简  介
  已是江户时代后期,时有明石藩江户之家老间宫图书(内野聖陽 饰)在幕府老中土井大炊头(平幹二朗 饰)的宅前自杀,此举引起朝野震动。一切皆由明石藩主齐昭(稲垣吾郎 饰)而起。齐昭系现任将军的异母弟弟,其人嗜血如命、暴虐无常,引起朝廷上下诸多人等的不满,然齐昭已内定成为下任老中。为免苍生遭其荼毒,土井授意岛田新作卫门(役所広司 饰)在齐昭回藩途中予以刺杀。新左卫门召集了仓永左平太(松方弘樹 饰)、三桥军次郎(沢村一樹 饰)、平山九十郎(伊原剛志 饰)等13名刺客,在齐昭的必经之地布下层层埋伏……
  本片翻拍自工藤荣一1963年同名经典名作,新版剧本由著名导演今村昌平之子天愿大介担任,该片荣获2010年日本电影旬报十佳影片第4名。
◎获奖情况
  第67届威尼斯电影节 (2010)
  金狮奖(提名) 三池崇史
  未来电影数字奖-特别提及 三池崇史
  第34届日本电影学院奖 (2011)
  最佳影片(提名)
  最佳导演(提名) 三池崇史
  最佳编剧(提名) 天愿大介
  最佳男主角(提名) 役所广司
  最佳配乐(提名) 远藤浩二
  最佳摄影 北信康
  最佳美术指导 林田裕至
  最佳照明 渡部嘉
  最佳录音 中村淳
  最佳剪辑(提名) 山下健治
  第5届亚洲电影大奖 (2011)
  我最喜爱的男女主角 我最喜爱的男主角(提名) 役所广司
  最佳导演(提名) 三池崇史
  最佳男主角(提名) 役所广司
  最佳美术指导 林田裕至
  最佳剪接(提名) 山下健治
  最佳造型设计(提名) Kazuhiro Sawataishi
  第10届华盛顿影评人协会奖 (2011)
  最佳外语片(提名)
Video
ID                                       : 1
Format                                   : AVC
Format/Info                              : Advanced Video Codec
Format profile                           : [email protected]
Format settings, CABAC                   : Yes
Format settings, ReFrames                : 5 frames
Codec ID                                 : V_MPEG4/ISO/AVC
Duration                                 : 2h 21mn
Bit rate                                 : 16.2 Mbps
Width                                    : 1 920 pixels
Height                                   : 802 pixels
Display aspect ratio                     : 2.40:1
Frame rate mode                          : Constant
Frame rate                               : 23.976 fps
Color space                              : YUV
Chroma subsampling                       : 4:2:0
Bit depth                                : 8 bits
Scan type                                : Progressive
Bits/(Pixel*Frame)                       : 0.439
Stream size                              : 16.1 GiB (90%)
Writing library                          : x264 core 116 r2019 9cc407d
Encoding settings                        : cabac=1 / ref=5 / deblock=1:-3:-3 / analyse=0x3:0x113 / me=tesa / subme=10 / psy=1 / psy_rd=1.05:0.00 / mixed_ref=1 / me_range=16 / chroma_me=1 / trellis=2 / 8x8dct=1 / cqm=0 / deadzone=21,11 / fast_pskip=0 / chroma_qp_offset=-2 / threads=12 / sliced_threads=0 / nr=0 / decimate=0 / interlaced=0 / bluray_compat=0 / constrained_intra=0 / bframes=7 / b_pyramid=2 / b_adapt=2 / b_bias=0 / direct=3 / weightb=1 / open_gop=0 / weightp=2 / keyint=250 / keyint_min=23 / scenecut=40 / intra_refresh=0 / rc=crf / mbtree=0 / crf=16.4 / qcomp=0.60 / qpmin=0 / qpmax=69 / qpstep=4 / ip_ratio=1.40 / pb_ratio=1.30 / aq=1:0.60
Language                                 : English
Default                                  : Yes
Forced                                   : No
Color range                              : Limited
Matrix coefficients                      : BT.709
Audio
ID                                       : 2
Format                                   : DTS
Format/Info                              : Digital Theater Systems
Mode                                     : 16
Format settings, Endianness              : Big
Codec ID                                 : A_DTS
Duration                                 : 2h 21mn
Bit rate mode                            : Constant
Bit rate                                 : 1 510 Kbps
Channel(s)                               : 6 channels
Channel positions                        : Front: L C R, Side: L R, LFE
Sampling rate                            : 48.0 KHz
Bit depth                                : 24 bits
Compression mode                         : Lossy
Stream size                              : 1.50 GiB (8%)
Language                                 : Japanese
Default                                  : Yes
Forced                                   : No
Text
ID                                       : 3
Format                                   : UTF-8
Codec ID                                 : S_TEXT/UTF8
Codec ID/Info                            : UTF-8 Plain Text
Language                                 : English
Default                                  : Yes
Forced                                   : No
Menu
00:00:00.000                             : en:00:00:00.000
00:04:58.298                             : en:00:04:58.298
00:17:25.378                             : en:00:17:25.378
00:23:08.345                             : en:00:23:08.345
00:30:00.882                             : en:00:30:00.882
00:38:51.788                             : en:00:38:51.788
00:44:20.324                             : en:00:44:20.324
00:51:23.539                             : en:00:51:23.539
00:56:03.026                             : en:00:56:03.026
01:00:10.899                             : en:01:00:10.899
01:07:17.659                             : en:01:07:17.659
01:14:52.530                             : en:01:14:52.530
01:28:42.442                             : en:01:28:42.442
01:36:44.882                             : en:01:36:44.882
01:59:36.669                             : en:01:59:36.669
02:11:10.696                             : en:02:11:10.696

精彩剧照


                                       

蓝光高清网提示您 点击下方附件名称 马上开始下载



温馨提示:
本站资源优先使用迅雷下载,迅雷会员下载,速度基本可以跑满宽带
如果遇到无资源或者版权问题无法下载,推荐使用115网盘离线下载(点击查看115网盘离线下载教程


  • 该资源需要您回复以后 刷新网页进行下载操作

  • 1、13.Assassins.2010.EXTENDED.1080p.JAPANESE.BluRay.x264.DTS-FGT.torrent 90KB 已下载 0 次

加入蓝光高清网VIP会员  无限制下载本站所有资源---点此加入

资源下载、资源播放、字幕使用、无法下载等常见问题---点这里

回复

使用道具 举报

懒得打字嘛,点击右侧快捷回复
高级模式
B Color Image Link Quote Code Smilies 上传

本版积分规则

关注0

粉丝0

帖子68004

发布主题
最新电影 论坛
广告位
联系我们
点击这里联系客服

服务时间:
周一到周日8:00-23:30

  • 打开微信扫一扫
    关注公众号

  • 手机QQ扫一扫
    添加客服

Archiver手机版蓝光高清网 ( 渝ICP备18006373号-2 )|网站地图

Powered by Discuz! X3.4  © 2001-2013 Comsenz Inc.