游客您好
第三方账号登陆
  • 点击联系客服

    在线时间:9:00-18:00

    客服QQ

    1371333023

    电子邮件

    lanniao@1080pro.net
  • 烧友之家APP

    随时掌握烧友资讯

  • 扫描二维码

    关注微信公众号

推荐阅读
蓝鸟
未知星球 | 未知职业
  • 关注0
  • 粉丝2
  • 帖子93845
精选帖子
开启左侧

伊丽莎白镇4k Elizabethtown.2005.2160p.AMZN.WEB-DL.x265.10bit.HDR10plus.DTS-HD.MA.5.1.电影下载—16.39 GB

[复制链接]
蓝鸟 发表于 2021-2-27 08:52:38 | 显示全部楼层 |阅读模式 打印 上一主题 下一主题
伊莉莎白镇
上映时间:2005年
类型:喜剧 剧情 爱情 家庭 
地区:美国 
导演:卡梅伦·克罗
主演:奥兰多·布鲁姆 / 克斯汀·邓斯特 / 苏珊·萨兰登 / 亚历克·鲍德温 / 杰西卡·贝尔
画质标准:4K HDR  封装音轨:DTS-HD.MA 5.1 
豆瓣评分:7.4分

加入蓝光高清网,轻松下载最新4k资源

您需要 登录 才可以下载或查看,没有帐号?立即注册

x
简       介
/ M4 \9 I" n& ~- K: o$ [
# s$ r- F, K# @" F3 R  德鲁(奥兰多·布鲁姆 Orlando Bloom饰)陷入了人生的谷底期,他为公司带来了数亿元的损失,逃不过被老板炒鱿、被女友甩掉的命运。万念俱灰中,他设计了一系列完美却又搞笑的自杀计划,企图一死了之。一串电话铃声,中止了他的自杀进程——父亲的死讯给德鲁带来了迫在眉睫的任务,他必须尽快回到遥远的伊丽莎白镇去处理后事。7 W- r! ~- p9 n% j5 K. M3 l
  于是,接下来的事情就像一连串奇妙的隐喻,让德鲁从谷底里重新看到希望。他在飞机上遇见空姐克莱尔(克尔斯滕·邓斯特 Kirsten Dunst饰),她美丽大方,善解人意,总是在德鲁最寂寞低落的时候给予窝心的慰藉。而德鲁的母亲,虽然总是神经兮兮,对生活的热忱和乐观却深深感染了儿子。在爱情和亲情的温泽下,德鲁渐渐重拾生活的信心日渐坚壮,带他走出生命低谷。

  X2 _7 O" k9 k" i7 C! S! S9 Z9 t) m# `  s: q7 g
/ \# _) p6 L# X7 n( i4 L% e, U
影片参数  u! k3 f+ M9 s" l, h6 ]
下一站...伊莉莎伯镇(港) / 伊莉莎白镇/伊丽莎白镇4k Elizabethtown.2005.2160p.AMZN.WEB-DL.x265.10bit.HDR10plus.DTS-HD.MA.5.1.电影信息
$ C  S2 S5 o9 X8 ^Video
* n, M' P, E9 SID : 18 s- r/ B( \; k4 ?" i2 p. O
Format : HEVC1 a- j) z* D1 J1 i- ?5 r
Format/Info : High Efficiency Video Coding2 I! M( I6 I( ]! b( g& a
Format profile : Main 10@L5@Main
& A5 Z& Y% m0 F. SHDR format : SMPTE ST 2094 App 4, Version 1, HDR10+ Profile B compatible' \7 l+ ~" G: Q% r+ w- I
Codec ID : V_MPEGH/ISO/HEVC8 f( z% Y8 D5 u- z
Duration : 2 h 3 min
8 Z/ f  s/ x7 q. l+ ]Bit rate : 14.8 Mb/s: F+ m/ x) X6 r& a! Q2 I  Q
Width : 3 840 pixels
* d/ }" r1 h, EHeight : 2 080 pixels  ^0 h5 `( f8 s/ x+ u
Display aspect ratio : 1.85:1" m5 N0 d/ T$ S9 O  V
Frame rate mode : Constant4 @' Y  Z' l: ]* |: Y% |' k
Frame rate : 23.976 (24000/1001) FPS
' o5 G- c+ ?# T5 w# @+ sColor space : YUV
3 ~$ y5 a1 @" nChroma subsampling : 4:2:02 v0 e8 [# ^0 C+ H0 X
Bit depth : 10 bits
0 T& ]6 ?( U( g8 X9 rBits/(Pixel*Frame) : 0.077
" j* J$ l' o4 Q  BStream size : 12.8 GiB (78%)
( z( K8 |3 v: r) Y; ?3 hDefault : Yes
% t5 E' Y/ I* P  z4 {3 EForced : No$ w5 {1 d" S+ h. T" A
Color range : Limited+ O) x* G: ]( n  O0 N$ g- L2 t
Color primaries : BT.2020
0 k5 P2 q* B( W1 a( D" aTransfer characteristics : PQ$ L( f5 X) `5 ^' \" P
Matrix coefficients : BT.2020 non-constant8 v' I3 v4 h+ C, \; l% R; n" C# e
Mastering display color primaries : Display P3! [& m3 w; a/ H- W9 t
Mastering display luminance : min: 0.0001 cd/m2, max: 1000 cd/m28 ?5 Z9 c# w7 Z
Maximum Content Light Level : 963 cd/m2
1 c9 [9 o  F& k) r, VMaximum Frame-Average Light Level : 340 cd/m24 E2 r( R4 B/ e) M% P9 A
5 j* n) e; H1 E! p

& O3 y3 P, K% n' [8 PAudio #19 O4 U6 w7 M% g& E- R
ID : 2
, B- i; a7 r$ n. iID in the original source medium : 4352 (0x1100)1 }( P4 y3 R7 @& i/ K- N
Format : DTS XLL
& @$ V# k* ?4 {% W& FFormat/Info : Digital Theater Systems
  D6 s2 u$ f) H5 M- M# A6 KCommercial name : DTS-HD Master Audio
( j% ?0 m& z1 j; \1 E0 NCodec ID : A_DTS1 g& W$ o! Q4 |
Duration : 2 h 3 min
5 M: m4 `7 T/ d9 B- X" VBit rate mode : Variable
: `( f! t. m5 A& G: h1 yBit rate : 3 515 kb/s' h, c# y1 L( f1 K
Channel(s) : 6 channels5 ^4 o# J3 ]  K0 O# n+ S( g
Channel layout : C L R Ls Rs LFE
, D+ \$ L( r6 M! K$ a2 YSampling rate : 48.0 kHz0 ]4 p% M9 T5 l( i
Frame rate : 93.750 FPS (512 SPF)
( W; l. K0 g6 N5 G: o- p6 ?Bit depth : 24 bits5 x  S2 @0 b/ Z) Z
Compression mode : Lossless5 w' c% y* G& D8 D9 F# u# p/ q
Stream size : 3.04 GiB (19%)
; j6 ^. y6 {# e* a$ Y# t* kTitle : DTS-HD MA 5.1
' ~  [: F$ Z* {- k8 RLanguage : English
- g. v: y0 z/ X" o+ x3 c- KDefault : Yes! X9 b5 L2 G! E) b% H
Forced : No
7 G! x  `5 c# P, V4 F) }5 BOriginal source medium : Blu-ray+ O# p) G5 r* x( ~: i

" n8 L# k6 ^9 P) e) x% G% s. ~* P

7 u. m6 ~; c) q. _$ uAudio #2
5 w" i8 _3 r+ ~, ~1 I: NID : 3
4 `9 P3 d/ d" {$ {* z1 G9 YFormat : E-AC-39 v) [- z) N4 `5 S
Format/Info : Enhanced AC-3) f) ]! j3 B, @- ~
Commercial name : Dolby Digital Plus
" k5 R- @+ ~2 n9 WCodec ID : A_EAC30 h* c  j% `/ {/ G$ ~- R
Duration : 2 h 3 min7 T, [3 s' O* l" L, e" V3 \
Bit rate mode : Constant
7 F: L8 V3 E2 D: N$ tBit rate : 640 kb/s
0 s! x( ^: j6 P4 uChannel(s) : 6 channels
0 Y7 D4 _' W8 \Channel layout : L R C LFE Ls Rs3 i# D6 j( D" d8 W: S8 I. `
Sampling rate : 48.0 kHz
5 k" F$ X9 p' q) X  nFrame rate : 31.250 FPS (1536 SPF)
' P! ]- n7 [& E* ^+ w' v, n& U5 oCompression mode : Lossy" L$ [4 l8 M9 F' N% X/ r, q
Stream size : 566 MiB (3%)
( m% w' U1 E5 f% G- ]5 [, eTitle : DDP 5.1
$ V: r+ [: [  @5 A5 aLanguage : English
8 b! `! S2 y% h" H' H/ \Service kind : Complete Main
9 T2 J" g5 c9 |Default : No/ j! Z* y: }& p' v! I
Forced : No
3 `- }% l- Q! p- ~2 X
# t& o/ m- q$ j9 C4 `# X3 O

8 Q! i$ u5 d0 `Text #1) ?. J7 G- o( c2 f, {& e+ A. m/ g
ID : 4( d$ s8 J9 u' Q1 t, r3 W1 J/ t
Format : UTF-87 g% |( e+ W$ a5 M- H0 m) i
Codec ID : S_TEXT/UTF8! X4 X! G  T8 Q+ E4 ?. e! ]* L, ~
Codec ID/Info : UTF-8 Plain Text
( b$ V, U% o9 e2 H4 ~. zDuration : 2 h 3 min
* X& _3 b0 D7 T/ h. `Bit rate : 58 b/s
9 H7 ]0 t- ?) _7 A! Z5 n, \Count of elements : 2010
- m$ y/ i* ?/ `' A* ^0 u' `Stream size : 52.9 KiB (0%)
) v. h- N& z; L* z" jTitle : SRT
- c- B4 e8 Q& E6 d' U, @8 B9 mLanguage : English% L1 y% y1 G5 v1 k6 \
Default : Yes
/ G9 h. Y0 k# y% B( i! H4 mForced : No
4 X# J& z' H# J. R0 k- d6 q! G+ G' i) i5 C0 D6 N4 Y: p1 Q
% b4 @! m/ p' N4 n( C/ q( `
Text #2: v. X% T4 e. t5 y% a) @. W6 K) h
ID : 5' y% J# L) s& N/ t! E
ID in the original source medium : 4608 (0x1200)" h: H% ~# e! q( I; m
Format : PGS- M/ R* [1 W+ s6 N7 A/ ^( r
Muxing mode : zlib
" f0 h3 j' T+ uCodec ID : S_HDMV/PGS  Y/ [& {: i, n# L0 `: U3 \
Codec ID/Info : Picture based subtitle format used on BDs/HD-DVDs0 y6 E: @; O3 Q" z
Duration : 1 h 56 min
* r+ s1 w1 y) }: _, c8 q7 }Bit rate : 32.7 kb/s# X% h4 O8 z1 r3 v" E
Count of elements : 2530
* Z) g/ ]6 w8 c2 N/ ^Stream size : 27.4 MiB (0%). F  U) ]7 u! ^6 Q$ R
Title : English-PGS
# u5 D; H  I' A& g) dLanguage : English
0 h. G  t" G" r0 x% xDefault : No' U& O/ @6 |! P5 S
Forced : No
# i: x, ^- z# \% M8 t$ M* SOriginal source medium : Blu-ray
' u8 {' R. Z5 T; i5 z# m9 H* z: R: v# Q  K$ p

' B7 q5 a9 _6 P  R8 Z3 qMenu( y- }, c0 t+ i% j, \
00:00:00.000 : en:Chapter 01
6 f. y! e" I1 I) G$ m2 c00:04:39.279 : en:Chapter 02
3 j8 Y' w4 C2 H+ [( [* M' b/ Q00:09:33.864 : en:Chapter 03/ L& m- r. |4 a" H  e( v
00:13:50.830 : en:Chapter 045 r/ n$ ~) r+ r& ]( n4 z
00:21:30.038 : en:Chapter 05
( ~, N; m1 r6 G* X( u00:27:03.622 : en:Chapter 060 ^: S. I7 N& R3 [; X2 {
00:34:23.686 : en:Chapter 07/ [( N8 e# R6 E% a& h
00:41:01.834 : en:Chapter 08
8 I! W( @% D" Y) ~# C3 Q' U00:47:23.549 : en:Chapter 09
2 S/ u: D3 j* ]- t00:53:13.982 : en:Chapter 10
$ L: ^" Q2 P( X- y5 q. L% B. S( D5 U01:00:41.346 : en:Chapter 11
, d  u. C; D  G' y( N& i7 b01:05:21.000 : en:Chapter 129 |3 n* @* W4 c  U
01:10:48.702 : en:Chapter 132 e, f* ~" \. S8 Q
01:13:58.600 : en:Chapter 14
' ^( X# H  a# p4 o01:20:04.174 : en:Chapter 15- t8 k8 X7 I5 q
01:26:15.753 : en:Chapter 16
2 Y7 L0 Y$ q. N! C+ g% I01:29:11.054 : en:Chapter 17
$ r9 U% x7 P. b& \+ H3 `; N01:36:44.048 : en:Chapter 18. T# {% H( ^) L6 I; _
01:41:53.107 : en:Chapter 19: X7 x+ [# I: }6 J. J
01:50:59.069 : en:Chapter 20* E  e" K! K% q" ^: r+ z* [  Y. f- P
01:57:28.041 : en:Chapter 21
; m4 H( O* @- w& `
/ F; R7 Z1 d. u' s6 d7 A
蓝光高清网提示您  点击下方附件名称  马上开始下载
" d. ]* W2 P- ^  [. C9 X% n% ^- T( x- i$ Z) r
6 K8 P7 Q7 _+ ?
下一站...伊莉莎伯镇(港) / 伊莉莎白镇/伊丽莎白镇4k Elizabethtown.2005.2160p.AMZN.WEB-DL.x265.10bit.HDR10plus.DTS-HD.MA.5.1.电影下载
* L6 |5 N/ i: T+ y1 ~
+ a( b9 F4 G( m; k- k( G! Q
伊丽莎白镇4k Elizabethtown.2005.2160p.AMZN.WEB-DL.x265.10bit.HDR10plus.DTS-HD.MA.5.1【16.39 GB】1 Z' e1 X1 k& w# ^+ @. M6 @. f. a/ O4 W
伊丽莎白镇4k Elizabethtown.2005.2160p.AMZN.WEB-DL.x265.10bit.HDR10plus.DT.torrent (文件大小:82.51 KB)

( H; s, S% l5 O" y8 d0 a/ |
% @) T1 i. w: M; f6 P1 F/ v. O6 O
伊丽莎白镇中文字幕下载
! Q* `2 V2 b, |. ]5 M( B Elizabethtown.2005.rar (文件大小:2.54 MB)
! w: B) r; c7 t' W2 r- s9 R

% L4 v# @! O. a3 u
加入蓝光高清网VIP会员  无限制下载本站所有资源---点这里

资源下载、资源播放、字幕使用、无法下载等常见问题---点这里
回复

使用道具 举报

精彩评论3

gdlmxia 发表于 2021-2-27 09:43:28 | 显示全部楼层
太好啦&萬分感謝版主的無私發佈分享%
回复 支持 反对

使用道具 举报

mac0422 发表于 2021-2-28 09:36:10 | 显示全部楼层
非常感谢蓝光高清网分享的各种知识和资源,祝蓝光高清网越来越好
回复 支持 反对

使用道具 举报

bengoben手机认证 发表于 2021-3-1 21:39:00 | 显示全部楼层
  A0 Z7 Y. J6 Y$ u! n" \0 z1 j
非常感谢蓝光高清网给大家的享乐4k,祝蓝光高清网越办越好!
回复 支持 反对

使用道具 举报

您需要登录后才可以回帖 登录 | 立即注册

本版积分规则

烧友之家(蓝光高清网)本站内容部分由用户自主分享和转载自互联网,转载目的在于传递更多信息,并不代表本网赞同其观点和对其真实性负责。 如有侵权、违反国家法律政策行为,请联系我们,我们会第一时间及时清除和处理!
蓝光高清网 综合资讯平台
关注我们
  • 官方微信公众号
  • 扫码下载官方APP

X3.4 Licensed© 2001-2013 蓝光高清网 烧友之家APP |网站地图