游客您好
第三方账号登陆
  • 点击联系客服

    在线时间:9:00-18:00

    客服QQ

    1371333023

    电子邮件

    lanniao@1080pro.net
  • 烧友之家APP

    随时掌握烧友资讯

  • 扫描二维码

    关注微信公众号

推荐阅读
蓝鸟
未知星球 | 未知职业
  • 关注0
  • 粉丝2
  • 帖子93845
精选帖子
开启左侧

汤姆和杰瑞/猫和老鼠 4k Tom.and.Jerry.2021.2160p.HMAX.WEB-DL.x265.10bit.HDR.DDP5.1.Atmos.电影下载—13.15 GB

[复制链接]
蓝鸟 发表于 2021-2-27 08:56:24 | 显示全部楼层 |阅读模式 打印 上一主题 下一主题
猫和老鼠
上映时间:2021年
类型:剧情 动画 冒险 
地区:美国 英国 法国 德国 
导演:蒂姆·斯托瑞
主演:科洛·莫瑞兹 / 迈克尔·佩纳 / 郑肯 / 科林·乔斯特 / 乔丹·博尔格
画质标准:4K HDR  封装音轨:Dolby TrueHD 5.1 
豆瓣评分:5.9分

加入蓝光高清网,轻松下载最新4k资源

您需要 登录 才可以下载或查看,没有帐号?立即注册

x
本帖最后由 蓝鸟 于 2021-2-28 12:01 编辑
7 k2 i$ ?0 e- N) L. Q; g9 T
% ~7 U% M8 K' N8 K9 Z- B' u简       介6 l0 ?- h* t% i, K

/ ^; @/ }+ _$ F# r! v$ F6 Q  “超杀女”科洛·莫瑞兹饰演的少女凯拉刚刚入职豪华大酒店,就碰上了叫人头疼的难题——杰瑞竟然想在酒店里定居,令酒店最近承接的世纪婚礼岌岌可危。于是,汤姆被凯拉雇佣成为酒店员工,目的是赶走杰瑞,这对欢喜冤家就此展开了一场你追我赶的爆笑喜剧。
5 W9 }/ N6 G7 a& r% w# ?
% M+ A: z  \) C
  m( x3 s) `- |) d5 n, ]
影片参数5 g+ ]+ R/ b) q, ], t1 S3 v
Tom&Jerry大电影(港) / 汤姆猫与杰利鼠(台) / 猫和老鼠真人电影 / 汤姆和杰瑞/猫和老鼠4k Tom.and.Jerry.2021.2160p.HMAX.WEB-DL.x265.10bit.HDR.DDP5.1.Atmos.电影信息5 F0 a7 Z9 v+ e
Video, t! M1 V% \; l2 ?4 n# {3 s; M
ID : 1' ?$ \0 |( N% w% K. K. {5 ?
Format : HEVC
5 [# A( d0 z3 w% TFormat/Info : High Efficiency Video Coding
) B: z" E; V# _. Y% x) u, |1 f( FFormat profile : Main 10@L5@Main/ P/ \2 C- c/ T$ |
HDR format : SMPTE ST 2086, HDR10 compatible4 a3 d4 L% \! y4 I+ r1 h
Codec ID : V_MPEGH/ISO/HEVC
1 A% q# a* L, L% ]Duration : 1 h 41 min
4 ~' q' d) w/ P# @Bit rate : 17.9 Mb/s) W! ~. T% d& b  ]- e
Width : 3 840 pixels8 g) c5 v5 `9 X/ l1 d, @0 t
Height : 2 160 pixels; [+ d( w* r5 P# A5 u% s
Display aspect ratio : 16:9
3 k, U3 K2 d, E9 E4 }Frame rate mode : Constant) N; l, p0 T8 b$ h! N* w: n- L! V
Frame rate : 23.976 (24000/1001) FPS
7 M; _8 {1 E, ]( K8 EColor space : YUV6 v0 A. j; C* x4 w' V
Chroma subsampling : 4:2:0/ V5 A6 c5 Y; G1 l3 y8 ?
Bit depth : 10 bits+ f! i3 |' C: y8 {/ @9 h2 b
Bits/(Pixel*Frame) : 0.090
9 ~3 v! f5 k( T6 |Stream size : 12.6 GiB (96%)4 h3 X+ u  a2 h1 b
Writing library : x265 3.4hy:[Linux][GCC 7.5.0][64 bit] 10bit
/ ^9 |9 Z# M6 }1 X0 V& @9 `Encoding settings : cpuid=1111039 / frame-threads=1 / wpp / no-pmode / no-pme / no-psnr / no-ssim / log-level=2 / input-csp=1 / input-res=3840x2160 / interlace=0 / total-frames=0 / level-idc=0 / high-tier=1 / uhd-bd=0 / ref=4 / no-allow-non-conformance / repeat-headers / annexb / no-aud / no-hrd / info / hash=0 / no-temporal-layers / no-open-gop / min-keyint=96 / keyint=96 / gop-lookahead=0 / bframes=3 / b-adapt=2 / b-pyramid / bframe-bias=0 / rc-lookahead=25 / lookahead-slices=4 / scenecut=40 / hist-scenecut=0 / radl=0 / no-splice / no-intra-refresh / ctu=64 / min-cu-size=8 / rect / no-amp / max-tu-size=32 / tu-inter-depth=1 / tu-intra-depth=1 / limit-tu=0 / rdoq-level=2 / dynamic-rd=0.00 / no-ssim-rd / signhide / no-tskip / nr-intra=0 / nr-inter=0 / no-constrained-intra / strong-intra-smoothing / max-merge=3 / limit-refs=3 / limit-modes / me=3 / subme=3 / merange=57 / temporal-mvp / no-frame-dup / no-hme / weightp / no-weightb / no-analyze-src-pics / deblock=0:0 / sao / no-sao-non-deblock / rd=4 / selective-sao=4 / no-early-skip / rskip / no-fast-intra / no-tskip-fast / no-cu-lossless / no-b-intra / no-splitrd-skip / rdpenalty=0 / psy-rd=2.00 / psy-rdoq=1.00 / no-rd-refine / no-lossless / cbqpoffs=0 / crqpoffs=0 / rc=abr / bitrate=18000 / qcomp=0.60 / qpstep=4 / stats-write=0 / stats-read=2 / cplxblur=20.0 / qblur=0.5 / vbv-maxrate=24500 / vbv-bufsize=24500 / vbv-init=0.6 / vbv-end=0.6 / vbv-end-fr-adj=0.0 / ipratio=1.40 / pbratio=1.30 / aq-mode=2 / aq-strength=1.00 / cutree / zone-count=0 / no-strict-cbr / qg-size=32 / no-rc-grain / qpmax=69 / qpmin=0 / no-const-vbv / sar=0 / overscan=0 / videoformat=5 / range=0 / colorprim=9 / transfer=16 / colormatrix=9 / chromaloc=0 / display-window=0 / master-display=G(13250,34500)B(7500,3000)R(34000,16000)WP(15635,16450)L(10000000,1) / cll=537,113 / min-luma=0 / max-luma=1023 / log2-max-poc-lsb=8 / vui-timing-info / vui-hrd-info / no-concatenation / slices=1 / no-opt-qp-pps / no-opt-ref-list-length-pps / no-multi-pass-opt-rps / scenecut-bias=0.05 / hist-threshold=0.01 / no-opt-cu-delta-qp / no-aq-motion / hdr10 / no-hdr10-opt / no-dhdr10-opt / no-idr-recovery-sei / analysis-reuse-level=0 / analysis-save-reuse-level=0 / analysis-load-reuse-level=0 / scale-factor=0 / refine-intra=0 / refine-inter=0 / refine-mv=1 / refine-ctu-distortion=0 / no-limit-sao / ctu-info=0 / no-lowpass-dct / refine-analysis-type=0 / copy-pic=1 / max-ausize-factor=1.0 / no-dynamic-refine / no-single-sei / no-hevc-aq / no-svt / no-field / qp-adaptation-range=1.00 / no-scenecut-aware-qpconformance-window-offsets / right=0 / bottom=0 / decoder-max-rate=0
! T2 ?) D7 O* A8 Y" r% o9 r; p" M  b$ nDefault : Yes
  F* n& a) `6 p' }Forced : No9 b$ U' g3 g- [- P* i
Color range : Limited+ p# ?- \2 r8 ^" k7 l7 B" s' r
Color primaries : BT.2020
* Q* b2 w. v) A, B- VTransfer characteristics : PQ
; K  E& A1 r8 Z- C; D9 ~Matrix coefficients : BT.2020 non-constant
! }1 h6 W: D2 z* qMastering display color primaries : Display P3
- u) V3 K+ C8 H6 F- f. ?/ wMastering display luminance : min: 0.0001 cd/m2, max: 1000 cd/m2# Y$ h5 l; w* n  \! Q! c
Maximum Content Light Level : 537 cd/m26 b0 }# h8 ^  O$ k; p; S
Maximum Frame-Average Light Level : 113 cd/m2
  |! f6 n4 _2 E2 @( _
+ w" J# e( ^" M+ W9 a! R0 d( l, \

  ~. v+ ^% l- h; L0 u2 C2 ~Audio
* r& m% B# c% GID : 2
; R$ g0 E* i) [% N: {1 \Format : E-AC-3 JOC
% @, I( r) @* _2 k+ ?3 M4 K5 DFormat/Info : Enhanced AC-3 with Joint Object Coding
, G7 E3 W+ y' U9 UCommercial name : Dolby Digital Plus with Dolby Atmos" Z. Q' x3 I# D4 L# ?6 |- u" x7 A
Codec ID : A_EAC3
! w9 k: J% e2 K7 iDuration : 1 h 41 min/ k* i4 ^! M( E2 y9 s, W/ Y
Bit rate mode : Constant
. F0 a8 A! f1 i+ _1 MBit rate : 768 kb/s& Q5 t9 q. [; z3 h/ V
Channel(s) : 6 channels
* L+ |& H- h* J! }" H1 JChannel layout : L R C LFE Ls Rs( ^$ V; E3 f+ H( [. T
Sampling rate : 48.0 kHz. ^+ e3 E5 c& H* s8 `4 @, N
Frame rate : 31.250 FPS (1536 SPF)9 a: t4 {5 F: H0 b
Compression mode : Lossy
* ?& _: h. _# U3 \Stream size : 555 MiB (4%)2 o+ }% a1 p2 n, o) `
Title : DDP 5.1 Atmos/ c' L6 K' p6 t2 A2 }
Language : English
2 x3 J+ m1 \+ }% j. B/ x! ~2 _& A# rService kind : Complete Main
( u& D2 V, i5 i% x7 jDefault : Yes
$ p* x/ n# d2 mForced : No
2 g: `' x! H" m% u6 w% lComplexity index : 16
* u* T9 ?( G+ Y' |. a* ENumber of dynamic objects : 15# H6 q5 i9 y# V+ B$ ?$ b
Bed channel count : 1 channel
2 b$ W- T9 s7 w' I- QBed channel configuration : LFE
$ M6 A$ T) z8 ~0 Q9 u: w& P* ?" U( j# J9 u. n" X
) k  Q! ~6 g( C
Text$ f2 ~3 _0 R& `0 y& X5 P
ID : 3$ J$ P; S3 C6 \) |# `' |
Format : UTF-8( e" c/ ?- [' E  x. ^) ?
Codec ID : S_TEXT/UTF8
  Z' ^% v# Y6 z- \6 a! W! t4 oCodec ID/Info : UTF-8 Plain Text
# M. v; h# g/ [. L1 r4 x. bDuration : 1 h 40 min
( M) w# j2 b5 o7 A5 ]& q+ kBit rate : 89 b/s9 w7 u& a3 q" c4 u
Count of elements : 2310' a6 V: ?: a5 T+ ^" L( U3 C+ F
Stream size : 66.0 KiB (0%)
9 p) v9 s( [+ n8 w- U! uTitle : SDH$ \& [* U0 ]% Y6 J8 Q8 F0 K9 c0 n( J
Language : English
9 [) Q1 P0 s6 N( K. eDefault : Yes# Z# |5 \2 s) V4 X/ r; [0 S( }
Forced : No

" _/ }  V- I9 T' `9 P蓝光高清网提示您  点击下方附件名称  马上开始下载! _; p3 Y0 x0 U2 m" K

( [$ E/ t0 b' @: _( N6 H- _- JTom&Jerry大电影(港) / 汤姆猫与杰利鼠(台) / 猫和老鼠真人电影 / 汤姆和杰瑞/猫和老鼠4k Tom.and.Jerry.2021.2160p.HMAX.WEB-DL.x265.10bit.HDR.DDP5.1.Atmos.电影下载
1 A& n5 P7 K! g% W9 ~
( a2 d: `8 {# R9 P
猫和老鼠4k Tom.and.Jerry.2021.2160p.HMAX.WEB-DL.x265.10bit.HDR.DDP5.1.Atmos【13.15 GB】$ x' g, I# U, Y+ T& s( N
猫和老鼠4k Tom.and.Jerry.2021.2160p.HMAX.WEB-DL.x265.10bit.HDR.DDP5.1.Atm.torrent (文件大小:66.33 KB)

) ?8 G& R& T& W, Z" H
猫和老鼠中文字幕下载 猫和老鼠.Tom.and.Jerry.2021.1080p.HMAX.WEB-DL.DDP5.1.Atmos.H.264-NWD.zip (文件大小:212.24 KB)
0 G* O* H1 w  E- b" U7 D% v
加入蓝光高清网VIP会员  无限制下载本站所有资源---点这里

资源下载、资源播放、字幕使用、无法下载等常见问题---点这里
回复

使用道具 举报

精彩评论7

gdlmxia 发表于 2021-2-27 09:46:10 | 显示全部楼层
太好啦&萬分感謝版主的無私發佈分享%
回复 支持 反对

使用道具 举报

jscstww 发表于 2021-2-27 14:04:33 | 显示全部楼层
* a9 ]) L% D" R/ W! y; J' u6 \
祝蓝光高清网越办越红火。
回复 支持 反对

使用道具 举报

MaKcc 发表于 2021-2-27 21:07:16 | 显示全部楼层
儿时的回忆
回复 支持 反对

使用道具 举报

feiyue 发表于 2021-2-27 22:04:28 | 显示全部楼层

6 M6 S4 K; H2 L天天访问蓝光高清网  天天打卡  习惯了
回复 支持 反对

使用道具 举报

yuzhong000 发表于 2021-3-1 03:22:49 | 显示全部楼层
谢楼主的辛苦
回复 支持 反对

使用道具 举报

jackiettm手机认证 发表于 2021-3-10 20:12:06 来自手机 | 显示全部楼层
好厉害,这片都有
回复 支持 反对

使用道具 举报

zyq6288手机认证 发表于 2021-3-12 12:07:22 | 显示全部楼层
厉害,这片都有
回复 支持 反对

使用道具 举报

您需要登录后才可以回帖 登录 | 立即注册

本版积分规则

烧友之家(蓝光高清网)本站内容部分由用户自主分享和转载自互联网,转载目的在于传递更多信息,并不代表本网赞同其观点和对其真实性负责。 如有侵权、违反国家法律政策行为,请联系我们,我们会第一时间及时清除和处理!
蓝光高清网 综合资讯平台
关注我们
  • 官方微信公众号
  • 扫码下载官方APP

X3.4 Licensed© 2001-2013 蓝光高清网 烧友之家APP |网站地图