游客您好
第三方账号登陆
  • 点击联系客服

    在线时间:9:00-18:00

    客服QQ

    1371333023

    电子邮件

    lanniao@1080pro.net
  • 烧友之家APP

    随时掌握烧友资讯

  • 扫描二维码

    关注微信公众号

推荐阅读
蓝鸟
未知星球 | 未知职业
  • 关注0
  • 粉丝2
  • 帖子93845
精选帖子
开启左侧

碧丽·艾莉许:模糊世界 4K.Billie.Eilish.The.Worlds.a.Little.Blurry.2021.2160p.ATVP.WEB-DL.x265.10bit.HDR.DDP5.1.Atmos-4k电影下载—24.41 GB

[复制链接]
蓝鸟 发表于 2021-2-27 09:00:29 | 显示全部楼层 |阅读模式 打印 上一主题 下一主题
碧丽·艾莉许:模糊世界
上映时间:2021年
类型:记录 
地区:美国 
导演:R·J·卡特勒
主演:碧丽·艾莉许 / 菲尼亚斯·奥康奈尔
画质标准:4K HDR  封装音轨:Dolby TrueHD 5.1 
豆瓣评分:8.5分

加入蓝光高清网,轻松下载最新4k资源

您需要 登录 才可以下载或查看,没有帐号?立即注册

x
简       介
! X: d. A, M+ X- R/ I  g0 Z' X* g4 Y, {" u1 V
  熟悉的歌声响起,从小到大的她的影像出现,聚焦这个尚未满19岁的年轻歌手的崛起、她那些改变了自己和许多人人生的音乐、她台前幕后的生活。
9 Q( x8 @+ @9 |% H
! `7 U; `# R2 H- P1 u
4 S3 f! H3 l; ^! n
影片参数% I3 H, h+ y& v9 {6 C
怪奇比莉:我眼中的迷濛世界/碧丽·艾莉许:模糊世界4K.Billie.Eilish.The.Worlds.a.Little.Blurry.2021.2160p.ATVP.WEB-DL.x265.10bit.HDR.DDP5.1.Atmos-4k电影信息1 j# s& X' B4 X5 L* Z/ M  x
Video1 k$ c8 n% B: ?3 j0 p3 W
ID : 1" H3 B" Q; r8 w9 G5 m4 v* U
Format : HEVC* t; M' D* E4 [
Format/Info : High Efficiency Video Coding
4 A# ~' \" g8 L1 d+ _* LFormat profile : Main 10@L5@High
4 V* i1 m# H( S) f. {% ~7 uHDR format : SMPTE ST 2086, HDR10 compatible& o; A) Q- l$ q0 U, ^4 I& V
Codec ID : V_MPEGH/ISO/HEVC1 Y2 W# T4 K2 F) ~2 i# C! Q) E3 x
Duration : 2 h 20 min& g- ^4 J; {) R
Bit rate : 24.1 Mb/s
! k$ R3 Y1 C, \3 _Width : 3 840 pixels
9 Y/ O+ ^2 S3 B9 L# E# OHeight : 2 160 pixels
0 [% J4 F! _1 H5 {4 dDisplay aspect ratio : 16:91 H! c' g; [0 R; f; _
Frame rate mode : Constant
3 ^- \/ [' s" D& E/ @Frame rate : 23.976 (24000/1001) FPS  u: z# a2 o4 v& P' @- W
Color space : YUV
- u) ]" W8 J& ?4 h2 W# i; OChroma subsampling : 4:2:0 (Type 2)$ E/ u4 Q8 {' u/ {1 y! L
Bit depth : 10 bits
9 B9 l& \3 n* _. i+ K3 t1 bBits/(Pixel*Frame) : 0.121# d/ Y6 Z1 F" j- G. s; N. |
Stream size : 23.7 GiB (97%)" H' H1 Q  y( r$ |' Q* ^
Default : Yes
7 e8 _' F) v: u0 Y( A2 l/ zForced : No3 j5 U4 E. I+ H3 [! [
Color range : Limited. \- `# X; S& d! Z' Q
Color primaries : BT.2020
9 G6 j. N- u, _( n) @3 W& WTransfer characteristics : PQ
5 e9 O  _, z! N3 t0 C+ s/ C4 QMatrix coefficients : BT.2020 non-constant. M4 s- W0 ~* u- d
Mastering display color primaries : Display P3
8 t/ u7 W! E, H0 R# aMastering display luminance : min: 0.0050 cd/m2, max: 1000 cd/m2" |8 [; O* f1 a8 e3 ^
Maximum Content Light Level : 1839 cd/m2$ [, U) O6 ?/ Z5 q
Maximum Frame-Average Light Level : 766 cd/m2
- L6 U9 N. V/ E+ K# W! L6 K1 r0 `; o9 P- M5 k' V0 d

; B* i: G6 D3 ~1 U, D3 y: n3 z1 @Audio
& J+ W$ b% W. F. sID : 2. N4 u, g3 f: ]9 Q4 H
Format : E-AC-3 JOC" o$ |5 ?* u# }& ~
Format/Info : Enhanced AC-3 with Joint Object Coding! e) Y1 J; T8 B1 c. O( t8 b
Commercial name : Dolby Digital Plus with Dolby Atmos
) B1 W! d  a' ?. o  d5 c/ PCodec ID : A_EAC3
2 q- M; c+ c6 zDuration : 2 h 20 min
- _0 A( F9 s* v0 H& `1 LBit rate mode : Constant
3 R0 Q" Q8 f% aBit rate : 768 kb/s
8 \; g# w# }" t. P4 z$ c0 nChannel(s) : 6 channels& {2 U5 h7 o5 g5 O5 K& g
Channel layout : L R C LFE Ls Rs
3 l1 d! y- E2 S5 ~( ~Sampling rate : 48.0 kHz" [  {) Z" d9 ^, g- o5 Z2 D
Frame rate : 31.250 FPS (1536 SPF)9 z) A( n9 N2 ^1 k% a% c
Compression mode : Lossy0 r7 g& R8 ?% i  Z8 ]( N
Stream size : 772 MiB (3%)
8 r7 ]( Z. @: uTitle : English: q5 q) Y  A- ^& Y
Language : English
0 J$ R  N8 l* |' v  r2 P) aService kind : Complete Main
& d# D" j' s" y& VDefault : No
9 G& y; x1 ~8 RForced : No' P0 Y$ s9 `9 p) r! ^# o
Complexity index : 16
/ N5 a* c$ J: ~8 DNumber of dynamic objects : 15
! j. V  @  ?; `* LBed channel count : 1 channel
* S: Z) m8 {% V9 M1 cBed channel configuration : LFE
* W1 B: K3 a6 d% Y, J9 {
+ Z$ u. X% t% m5 h% M3 N# w
9 l8 K, F! d- J1 B  l# k% a
Text #1
4 `/ W0 a& ~5 \" @) k) E/ HID : 3; G( }9 O6 B' u" n/ k# l# H( Q
Format : UTF-8
+ e2 d1 v: o# lCodec ID : S_TEXT/UTF8: G% R& y+ K% W5 z  U
Codec ID/Info : UTF-8 Plain Text
  t* z* S- x% _; j0 hDuration : 2 h 20 min
) [# L* g( d/ `& b: mBit rate : 66 b/s
" K- ~, P& |9 D& Z2 iCount of elements : 21648 a$ P9 K0 D6 E, w
Stream size : 68.0 KiB (0%)0 r# g, I% s% w$ J# X$ }
Title : Hungarian
8 [7 ~$ t2 \, i2 _Language : Hungarian
) q  x  \1 ]' Y; Z% `. zDefault : No8 \$ a- B" ^0 b% l- l* k, q
Forced : No
- i% |8 e8 @0 X6 K/ h9 p# B5 V3 U$ Q5 k. X/ j$ y
) O5 M0 c$ [5 B' {. G
Text #21 r, |, w9 J; w4 a, v) [
ID : 4
- V7 h( ]2 Z; d' s5 z: AFormat : UTF-84 C6 D! [6 L' @* {# z' P$ r
Codec ID : S_TEXT/UTF84 D" B2 q( _0 j% N, ]/ M
Codec ID/Info : UTF-8 Plain Text) L6 n! q9 H( N
Duration : 2 h 20 min
$ M3 h! d# m7 v! J9 X( r( cBit rate : 58 b/s
3 a4 R: ^: @5 I7 t7 u/ CCount of elements : 1788
5 l* C2 m: w  A0 uStream size : 60.3 KiB (0%)
; |# Z3 ?+ F. ^6 {4 i9 PTitle : Dutch6 t5 x# l4 |) ~6 Z
Language : Dutch6 T5 {6 k  R5 F* q- @
Default : No3 M4 T# ~4 }" h0 o$ }
Forced : No
' D3 O' A+ e  U* F8 g4 X: f. V" m' O# t6 \% |; R
- y9 p1 X/ S$ K2 i6 E
Text #4/ l, Y' P( y0 @/ D0 n
ID : 63 r- a" I! \1 v4 y7 ?" F; q
Format : UTF-8
5 m" @# k; ]' H' `Codec ID : S_TEXT/UTF8
) ~1 B3 \/ R3 FCodec ID/Info : UTF-8 Plain Text1 t9 I8 \4 {3 q* W* s8 O
Duration : 2 h 20 min
. g* ^9 f7 e( k! eBit rate : 87 b/s
4 P5 i5 Q  v, I( _2 u. x1 G& f& vCount of elements : 24006 D2 I! S. r/ M% M+ F, Z
Stream size : 89.5 KiB (0%), s/ b$ a( [( J8 |: X
Title : English [SDH]. C, B  g# p' u. C8 u
Language : English, h& w) D/ s( G% {4 V5 K) {
Default : No0 i! Z) |: a) X3 x1 O  t9 u3 T  w
Forced : No
% m- e3 I' v& u
- u, m! h$ B$ Q; @% W

) I5 I0 m0 N2 I* L: _+ ~  GText #18
* Y/ n8 Q( r0 n$ w0 ~6 N! w4 EID : 20
6 V. j) }; ]- `( H- ~5 X! oFormat : UTF-8
2 I6 I! M( l5 C: kCodec ID : S_TEXT/UTF8+ h4 E/ r& u9 j4 e' a* m/ c
Codec ID/Info : UTF-8 Plain Text
5 a" b( u. ]+ }+ E6 CDuration : 2 h 20 min5 ~) `* e6 A. y) p% J
Bit rate : 66 b/s2 F/ k$ T4 ?5 h2 v8 r, @5 h
Count of elements : 2190
, m+ h! l$ j% w7 m. Z# g; }- XStream size : 68.2 KiB (0%)4 D4 t! b& e  f  o1 Z+ D
Title : Cantonese+ V& a' T1 Q1 R/ M# D
Language : Chinese
2 U3 k5 }0 \7 T$ Q; KDefault : No* Q. ^# S. V- @; k% S3 G* w( L7 G2 c
Forced : No
4 Z8 D6 p* ?2 K/ F$ s' T
( w8 N" A1 c; G8 I8 }' j! `

8 T, G; [* ~4 ?4 t1 T5 I' m( D4 G& m* ^- Q
& t1 U8 i6 w' F  F3 g
Text #32- w8 V+ e( `0 i+ G0 b
ID : 345 N+ V! J. `! \, X6 y# f& w
Format : UTF-8
3 ]& H) I9 H/ M. K& a, E& c2 ?" aCodec ID : S_TEXT/UTF8
2 d# w9 Q& O, v% OCodec ID/Info : UTF-8 Plain Text) N5 A9 B4 h' i1 a/ w
Duration : 2 h 20 min
0 U( o* B: P( L; N0 B  {. VBit rate : 63 b/s1 |5 d  G8 g$ Y9 N6 I% z8 |! T
Count of elements : 2192
) _% M3 O$ W' `6 b! mStream size : 65.4 KiB (0%)
* v- O/ ^1 ]' B2 r/ P5 e* e% HTitle : Traditional
3 h* }5 p$ X% B  \  ~! n  T" [& K/ \Language : Chinese$ B; w, c+ P; k8 L' F: T
Default : No
9 c* A1 P% j, V8 p; F7 V/ sForced : No9 D: N2 h! l$ ^9 j. ]' _4 v
: q: I. N5 s* c: |  t  _' y5 u

1 W9 M, G" M! K( g0 |$ |Text #33- p" K7 X7 k& }
ID : 35; A9 E5 Q0 Q0 o) h
Format : UTF-8
2 R0 I2 @9 J( B5 [Codec ID : S_TEXT/UTF88 X& r4 x5 v" w1 s) p% j
Codec ID/Info : UTF-8 Plain Text
/ u  P% o$ \1 n% q. ?7 mDuration : 2 h 20 min
" v+ b9 N% d3 N. y/ ABit rate : 72 b/s
$ I% }& {5 X) B; B& p) PCount of elements : 2174
- K+ W* ]. F; V5 R% k! T! a# eStream size : 74.2 KiB (0%)2 o) |9 ?, D% I6 ]/ v  O
Title : Latvian
) v. l  [! h/ ^; L% G# }* X; _! o5 NLanguage : Latvian
5 u# P$ K+ m) g7 zDefault : No
5 G* U& a# M& t1 v0 c, I  CForced : No; n- r2 Y1 t1 @. w5 [

! X4 }3 R: L! H0 V4 ~4 v
- j0 Z+ l/ f0 ?

- t9 \0 Y' i0 u/ q7 k  ^

6 j3 @- `2 K3 \7 I* e, m) p/ d. KText #38
$ l! I4 U) d" [! ?  y3 {: {ID : 40( Q: z% t. ^$ `8 s* e# F, ?
Format : UTF-8
" @0 O7 V( ]5 v5 a# h" ]Codec ID : S_TEXT/UTF8
/ r. P0 c0 z: f6 e( f* VCodec ID/Info : UTF-8 Plain Text
* ]' Y5 f5 w" R& v4 |8 G+ bDuration : 2 h 20 min; m" t% D) Y4 v% c, H
Bit rate : 60 b/s- D: z+ G1 C% V+ V" B: x. r4 U
Count of elements : 2186$ b+ w: l5 {, ^
Stream size : 62.4 KiB (0%)1 [! i/ M. x2 z! f0 G5 s) Y9 A
Title : Simplified3 N, M8 C) D0 u! l- k4 r' a
Language : Chinese
5 R: x8 [9 T! w3 ]2 |* KDefault : No
) \4 G0 G% y$ ^- @5 V+ M. bForced : No( C$ ^3 ]3 A2 J- l2 \
: T7 _& e8 A  {* {
5 [, ~. k! U) M1 }# y7 u, i
Text #390 \3 ^) u9 z* i+ G
ID : 41
5 k; v/ E0 M9 u/ C4 KFormat : UTF-8
, B' o9 \* b8 Y. y2 f, FCodec ID : S_TEXT/UTF86 V, r* K7 \( Y
Codec ID/Info : UTF-8 Plain Text  v, l- o  {! d# U
Duration : 2 h 19 min0 t  U1 k, k5 W& o" Z9 M" c
Bit rate : 72 b/s
% r1 H. ^/ E" V' ~' Z& {Count of elements : 2141
8 q0 g* z# F" r( P# c- h- vStream size : 74.0 KiB (0%)8 k, j. j+ f, @
Title : English$ D/ \# A. M- Y& v, a* s) }+ O
Language : English
1 O" k! U  t' n7 ~Default : No
: g. N& ]7 e8 v: }Forced : No
0 f" k% P( ~0 d+ E

' W  p& t! l$ @蓝光高清网提示您  点击下方附件名称  马上开始下载
( s# g3 P6 w0 j' ]  _+ ?/ |* ?" F% S$ g9 |- E+ E- Z% L4 S
: ]6 ~7 p- C" f4 ^8 t3 [4 |
多版本下载时请注意区分
, r. D6 `/ s+ S
9 p' t7 P2 l1 e6 O+ l2 A

! ?4 E/ q) a2 h# h! h+ W! h怪奇比莉:我眼中的迷濛世界/碧丽·艾莉许:模糊世界4K.Billie.Eilish.The.Worlds.a.Little.Blurry.2021.2160p.ATVP.WEB-DL.x265.10bit.HDR.DDP5.1.Atmos-4K电影下载
: [# n6 a* w3 c, U; F! s& z  [0 k9 `) B4 M( R. M2 Q( C
碧丽·艾莉许:模糊世界4K.Billie.Eilish.The.Worlds.a.Little.Blurry.2021.2160p.ATVP.WEB-DL.x265.10bit.HDR.DDP5.1.Atmos-简繁中字【4K HDR 24.41 GB】
6 B& ~+ e5 g: {8 E. `) }- B! m1 E 碧丽·艾莉许:模糊世界4K.Billie.Eilish.The.Worlds.a.Little.Blurry.2021.21.torrent (文件大小:61.66 KB)

" {: P5 p; ^9 ^
' }& S4 ?! q% L8 d% v
加入蓝光高清网VIP会员  无限制下载本站所有资源---点这里

资源下载、资源播放、字幕使用、无法下载等常见问题---点这里
回复

使用道具 举报

精彩评论3

gdlmxia 发表于 2021-2-27 09:48:07 | 显示全部楼层
太好啦&萬分感謝版主的無私發佈分享%
回复 支持 反对

使用道具 举报

1085 发表于 2021-3-1 17:10:11 | 显示全部楼层
感谢分享好资源 谢谢+ ^4 L- a% ?) J3 j- C( S
回复 支持 反对

使用道具 举报

三金 发表于 2021-3-3 19:02:09 | 显示全部楼层
非常感谢蓝光高清网分享的各种知识和资源,祝蓝光高清网越来越好
回复 支持 反对

使用道具 举报

您需要登录后才可以回帖 登录 | 立即注册

本版积分规则

烧友之家(蓝光高清网)本站内容部分由用户自主分享和转载自互联网,转载目的在于传递更多信息,并不代表本网赞同其观点和对其真实性负责。 如有侵权、违反国家法律政策行为,请联系我们,我们会第一时间及时清除和处理!
蓝光高清网 综合资讯平台
关注我们
  • 官方微信公众号
  • 扫码下载官方APP

X3.4 Licensed© 2001-2013 蓝光高清网 烧友之家APP |网站地图