[惊悚] 十三/美国版 百万杀人游戏 13.2010.1080p.BluRay.x264.DTS-FGT 7.94GB

[复制链接]
蓝鸟VIP会员 永久VIP 发表于 2019-8-21 23:23:15 | 显示全部楼层 |阅读模式 打印 上一主题 下一主题

马上注册,轻松下载,海量资源,让你轻松玩转社区。

您需要 登录 才可以下载或查看,没有帐号?立即注册

x


◎译  名 十三/美国版《百万杀人游戏》
◎片  名 13
◎年  代 2010
◎国  家 美国
◎类  别 剧情/惊悚
◎语  言 英语
◎上映日期 2010
◎IMDb评分  6.1/10 from 31,946 users
◎IMDb链接  http://www.imdb.com/title/tt0798817/
◎豆瓣评分 6.3/10 from 7,622 users
◎豆瓣链接 http://movie.douban.com/subject/3217153/
◎片  长 93分钟
◎导  演 格拉·巴布鲁阿尼 Géla Babluani
◎主  演 米基·洛克 Mickey Rourke
      杰森·斯坦森 Jason Statham
      埃曼纽尔·施莱琪 Emmanuelle Chriqui
      亚历山大·斯卡斯加德 Alexander Skarsg?rd
      盖比·霍夫曼 Gaby Hoffmann
      迈克尔·珊农 Michael Shannon
      50分 50 Cent
      大卫·札亚斯 David Zayas
      雷·温斯顿 Ray Winstone
      黛西·塔汉 Daisy Tahan
      萨姆·赖利 Sam Riley
      本·戈扎那 Ben Gazzara
      韦恩·杜瓦尔 Wayne Duvall
      小迈克尔·贝瑞 Michael Berry Jr.
      阿什莉·阿特金森 Ashlie Atkinson
      查克·齐托 Chuck Zito
      约翰·贝德福德·劳埃德 John Bedford Lloyd
      约翰·菲奥里 John Fiore
      唐·弗莱 Don Frye
      斯蒂芬·格维顿 Stephen Gevedon
      罗纳德·格特曼 Ronald Guttman
      爱丽丝·巴雷特 Alice Barrett
      史蒂夫·安托努奇 Steve Antonucci
◎简  介
  为给身患重病的父亲交付医药费,电工文斯(萨姆·赖利 Sam Riley饰)不得已卖掉了房子。一次偶然的机会,文斯在他修理的房间里得到房主的一封神秘信件和一张不知道终点的火车票。一面是房主的离奇意外死亡和完全未知的危险旅程,一面是一笔足够改写人生的巨额财富,文斯最终还是决 定踏上这次神秘旅程。然而当他抵达隐蔽的目的地之后,等待他的却是一场无法全身而退的疯狂杀人游戏。
  本片翻拍自2005年法国犯罪惊悚影片《百万杀人游戏》(13 Tzameti),依旧由原作导演兼编剧的格拉·巴布鲁阿尼执导与编剧。萨姆·赖利、米基·洛克、杰森·斯坦森、雷·温斯顿等多位硬汉同台演绎这场生死博弈。
Video
ID                                       : 1
Format                                   : AVC
Format/Info                              : Advanced Video Codec
Format profile                           : [email protected]
Format settings, CABAC                   : Yes
Format settings, ReFrames                : 4 frames
Codec ID                                 : V_MPEG4/ISO/AVC
Duration                                 : 1h 37mn
Bit rate                                 : 10.2 Mbps
Width                                    : 1 920 pixels
Height                                   : 816 pixels
Display aspect ratio                     : 2.35:1
Frame rate mode                          : Constant
Frame rate                               : 23.976 fps
Color space                              : YUV
Chroma subsampling                       : 4:2:0
Bit depth                                : 8 bits
Scan type                                : Progressive
Bits/(Pixel*Frame)                       : 0.271
Stream size                              : 6.76 GiB (85%)
Writing library                          : x264 core 98 r1649 20cbe10
Encoding settings                        : cabac=1 / ref=4 / deblock=1:-3:-3 / analyse=0x3:0x133 / me=umh / subme=9 / psy=1 / psy_rd=1.00:0.00 / mixed_ref=1 / me_range=32 / chroma_me=1 / trellis=2 / 8x8dct=1 / cqm=0 / deadzone=21,11 / fast_pskip=0 / chroma_qp_offset=-4 / threads=9 / sliced_threads=0 / nr=0 / decimate=1 / interlaced=0 / constrained_intra=0 / bframes=3 / b_pyramid=2 / b_adapt=2 / b_bias=0 / direct=3 / weightb=1 / weightp=2 / keyint=250 / keyint_min=25 / scenecut=40 / intra_refresh=0 / rc_lookahead=40 / rc=2pass / mbtree=1 / bitrate=10179 / ratetol=1.0 / qcomp=0.60 / qpmin=10 / qpmax=51 / qpstep=4 / cplxblur=20.0 / qblur=0.5 / ip_ratio=1.40 / aq=1:1.00
Language                                 : English
Default                                  : Yes
Forced                                   : No
Audio
ID                                       : 2
Format                                   : DTS
Format/Info                              : Digital Theater Systems
Mode                                     : 16
Format settings, Endianness              : Big
Codec ID                                 : A_DTS
Duration                                 : 1h 37mn
Bit rate mode                            : Constant
Bit rate                                 : 1 510 Kbps
Channel(s)                               : 6 channels
Channel positions                        : Front: L C R, Side: L R, LFE
Sampling rate                            : 48.0 KHz
Bit depth                                : 24 bits
Compression mode                         : Lossy
Stream size                              : 1.03 GiB (13%)
Language                                 : English
Default                                  : Yes
Forced                                   : No
Text
ID                                       : 3
Format                                   : UTF-8
Codec ID                                 : S_TEXT/UTF8
Codec ID/Info                            : UTF-8 Plain Text
Language                                 : English
Default                                  : No
Forced                                   : No
Menu
00:00:00.000                             : :Chapter 01
00:06:20.505                             : :Chapter 02
00:13:03.240                             : :Chapter 03
00:17:24.501                             : :Chapter 04
00:24:03.191                             : :Chapter 05
00:29:47.243                             : :Chapter 06
00:34:10.840                             : :Chapter 07
00:41:50.841                             : :Chapter 08
00:46:59.942                             : :Chapter 09
00:52:09.292                             : :Chapter 10
00:57:30.822                             : :Chapter 11
01:04:25.736                             : :Chapter 12
01:11:02.675                             : :Chapter 13
01:17:35.192                             : :Chapter 14
01:25:10.146                             : :Chapter 15
01:31:18.431                             : :Chapter 16
01:37:15.037                             : :Chapter 17

精彩剧照


                                       

蓝光高清网提示您 点击下方附件名称 马上开始下载



温馨提示:
本站资源优先使用迅雷下载,迅雷会员下载,速度基本可以跑满宽带
如果遇到无资源或者版权问题无法下载,推荐使用115网盘离线下载(点击查看115网盘离线下载教程


  • 该资源需要您回复以后 刷新网页进行下载操作

  • 1、13.2010.1080p.BluRay.x264.DTS-FGT.torrent 80KB 已下载 0 次

加入蓝光高清网VIP会员  无限制下载本站所有资源---点此加入

资源下载、资源播放、字幕使用、无法下载等常见问题---点这里

回复

使用道具 举报

懒得打字嘛,点击右侧快捷回复
高级模式
B Color Image Link Quote Code Smilies 上传

本版积分规则

关注0

粉丝0

帖子69282

发布主题
最新电影 论坛
广告位
联系我们
点击这里联系客服

服务时间:
周一到周日8:00-23:30

  • 打开微信扫一扫
    关注公众号

  • 手机QQ扫一扫
    添加客服

Archiver手机版蓝光高清网 ( 渝ICP备18006373号-2 )|网站地图

Powered by Discuz! X3.4  © 2001-2013 Comsenz Inc.