[恐怖] 人狼 Wer.2013.1080p.BluRay.x264.DTS-FGT 6.71GB

[复制链接]
蓝鸟VIP会员 永久VIP 发表于 2019-8-21 23:24:03 | 显示全部楼层 |阅读模式 打印 上一主题 下一主题

马上注册,轻松下载,海量资源,让你轻松玩转社区。

您需要 登录 才可以下载或查看,没有帐号?立即注册

x


◎译  名 人狼
◎片  名 Wer
◎年  代 2013
◎国  家 美国
◎类  别 恐怖
◎语  言 英语
◎IMDb评分  5.9/10 from 4,480 users
◎IMDb链接  http://www.imdb.com/title/tt2229511/
◎豆瓣评分 4.9/10 from 24 users
◎豆瓣链接 http://movie.douban.com/subject/24878381/
◎导  演 William Brent Bell
◎主  演 A·J·库克 A.J. Cook
      塞巴斯蒂安·罗奇 Sebastian Roché
      斯蒂芬妮·勒梅林 Stephanie Lemelin
      维克·萨海 Vik Sahay
      Oaklee Pendergast
      安洁莉娜·阿玛尼 Angelina Armani
      Simon Quarterman
      Brian Johnson
◎简  介
  A defense attorney begins to suspect that her client, who is charged with the murders of a vacationing family, might be more than meets the eye.
Video
ID                                       : 1
Format                                   : AVC
Format/Info                              : Advanced Video Codec
Format profile                           : [email protected]
Format settings, CABAC                   : Yes
Format settings, ReFrames                : 4 frames
Codec ID                                 : V_MPEG4/ISO/AVC
Duration                                 : 1h 33mn
Bit rate                                 : 8 582 Kbps
Width                                    : 1 920 pixels
Height                                   : 1 040 pixels
Display aspect ratio                     : 1.85:1
Frame rate mode                          : Constant
Frame rate                               : 23.976 fps
Color space                              : YUV
Chroma subsampling                       : 4:2:0
Bit depth                                : 8 bits
Scan type                                : Progressive
Bits/(Pixel*Frame)                       : 0.179
Stream size                              : 5.59 GiB (83%)
Writing library                          : x264 core 142 r2479 dd79a61
Encoding settings                        : cabac=1 / ref=4 / deblock=1:-1:-1 / analyse=0x3:0x133 / me=umh / subme=7 / psy=1 / psy_rd=1.00:0.15 / mixed_ref=1 / me_range=16 / chroma_me=1 / trellis=1 / 8x8dct=1 / cqm=0 / deadzone=21,11 / fast_pskip=0 / chroma_qp_offset=-3 / threads=18 / lookahead_threads=3 / sliced_threads=0 / nr=0 / decimate=1 / interlaced=0 / bluray_compat=0 / constrained_intra=0 / bframes=3 / b_pyramid=2 / b_adapt=1 / b_bias=0 / direct=3 / weightb=1 / open_gop=0 / weightp=2 / keyint=240 / keyint_min=23 / scenecut=40 / intra_refresh=0 / rc_lookahead=50 / rc=crf / mbtree=1 / crf=20.0 / qcomp=0.60 / qpmin=10 / qpmax=51 / qpstep=4 / ip_ratio=1.40 / aq=1:1.00
Language                                 : English
Default                                  : Yes
Forced                                   : No
Audio
ID                                       : 2
Format                                   : DTS
Format/Info                              : Digital Theater Systems
Mode                                     : 16
Format settings, Endianness              : Big
Codec ID                                 : A_DTS
Duration                                 : 1h 33mn
Bit rate mode                            : Constant
Bit rate                                 : 1 509 Kbps
Channel(s)                               : 6 channels
Channel positions                        : Front: L C R, Side: L R, LFE
Sampling rate                            : 48.0 KHz
Bit depth                                : 16 bits
Compression mode                         : Lossy
Stream size                              : 1 007 MiB (15%)
Language                                 : English
Default                                  : Yes
Forced                                   : No
Menu
00:00:00.000                             : en:00:00:00.000
00:10:00.558                             : en:00:10:00.558
00:17:38.891                             : en:00:17:38.891
00:27:08.043                             : en:00:27:08.043
00:37:30.582                             : en:00:37:30.582
00:44:28.708                             : en:00:44:28.708
00:51:05.187                             : en:00:51:05.187
01:00:48.603                             : en:01:00:48.603
01:04:58.603                             : en:01:04:58.603
01:07:35.760                             : en:01:07:35.760
01:13:31.699                             : en:01:13:31.699
01:16:43.974                             : en:01:16:43.974

精彩剧照


                                       

蓝光高清网提示您 点击下方附件名称 马上开始下载



温馨提示:
本站资源优先使用迅雷下载,迅雷会员下载,速度基本可以跑满宽带
如果遇到无资源或者版权问题无法下载,推荐使用115网盘离线下载(点击查看115网盘离线下载教程


  • 该资源需要您回复以后 刷新网页进行下载操作

  • 1、Wer.2013.1080p.BluRay.x264.DTS-FGT.torrent 68KB 已下载 0 次

加入蓝光高清网VIP会员  无限制下载本站所有资源---点此加入

资源下载、资源播放、字幕使用、无法下载等常见问题---点这里

回复

使用道具 举报

懒得打字嘛,点击右侧快捷回复
高级模式
B Color Image Link Quote Code Smilies 上传

本版积分规则

关注0

粉丝0

帖子66561

发布主题
最新电影 论坛
广告位
联系我们
点击这里联系客服

服务时间:
周一到周日8:00-23:30

  • 打开微信扫一扫
    关注公众号

  • 手机QQ扫一扫
    添加客服

Archiver手机版蓝光高清网 ( 渝ICP备18006373号-2 )|网站地图

Powered by Discuz! X3.4  © 2001-2013 Comsenz Inc.