[惊悚] 东京铁拳 Tokyo.Fist.1995.JAPANESE.1080p.BluRay.x264.DD2.0-FGT 8.35GB

[复制链接]
蓝鸟VIP会员 永久VIP 发表于 2019-8-21 23:24:52 | 显示全部楼层 |阅读模式 打印 上一主题 下一主题

马上注册,轻松下载,海量资源,让你轻松玩转社区。

您需要 登录 才可以下载或查看,没有帐号?立即注册

x


◎译  名 东京铁拳
◎片  名 東京フィスト
◎年  代 1995
◎国  家 日本
◎类  别 动作/剧情/惊悚
◎语  言 日语
◎上映日期 1995-09-09
◎IMDb评分  7.2/10 from 2,056 users
◎IMDb链接  http://www.imdb.com/title/tt0114690/
◎豆瓣评分 7.1/10 from 426 users
◎豆瓣链接 http://movie.douban.com/subject/1418625/
◎片  长 87 分钟/Argentina: 87 分钟(Mar del Plata Film Festival)
◎导  演 塚本晋也
◎主  演 藤井夏保利
      塚本晋也
      塚本耕司
      六平直政
      竹中直人
◎简  介
  津田义春(冢本晋也 饰)是某保险公司的业务员,他终日奔波劳碌,委曲求全,过着紧张乏味的生活。这天,义春在回家的路上遇见了高中时代的同学小岛拓司(塚本耕司 饰)。因不可告人的过去,义春刻意疏远这个招人厌烦的同学,然而拓司却自顾自闯进他的生活,甚至调戏义春的女友(藤井かほり 饰)。
  恼羞成怒的义春前去理论,反被拳击手出身的拓司痛揍一顿。由这一刻起,拓司、义春及其女友的生活发生巨大的变化……
  本片荣获1996年布鲁塞尔国际奇幻电影节特别荣誉奖和1996年日本电影旬报最佳新人奖(冢本耕司)。
Video
ID                                       : 1
Format                                   : AVC
Format/Info                              : Advanced Video Codec
Format profile                           : [email protected]
Format settings, CABAC                   : Yes
Format settings, ReFrames                : 5 frames
Codec ID                                 : V_MPEG4/ISO/AVC
Duration                                 : 1h 27mn
Bit rate                                 : 13.0 Mbps
Width                                    : 1 920 pixels
Height                                   : 1 040 pixels
Display aspect ratio                     : 1.85:1
Frame rate mode                          : Constant
Frame rate                               : 23.976 fps
Color space                              : YUV
Chroma subsampling                       : 4:2:0
Bit depth                                : 8 bits
Scan type                                : Progressive
Bits/(Pixel*Frame)                       : 0.271
Stream size                              : 7.95 GiB (95%)
Writing library                          : x264 core 142 r2431 ac76440
Encoding settings                        : cabac=1 / ref=5 / deblock=1:-3:-1 / analyse=0x3:0x133 / me=umh / subme=11 / psy=0 / mixed_ref=0 / me_range=32 / chroma_me=1 / trellis=2 / 8x8dct=1 / cqm=0 / deadzone=21,11 / fast_pskip=0 / chroma_qp_offset=1 / threads=12 / lookahead_threads=2 / sliced_threads=0 / nr=0 / decimate=1 / interlaced=0 / bluray_compat=0 / constrained_intra=0 / bframes=7 / b_pyramid=2 / b_adapt=2 / b_bias=0 / direct=3 / weightb=1 / open_gop=0 / weightp=2 / keyint=240 / keyint_min=23 / scenecut=40 / intra_refresh=0 / rc_lookahead=200 / rc=crf / mbtree=1 / crf=16.9 / qcomp=0.68 / qpmin=0 / qpmax=69 / qpstep=4 / ip_ratio=1.30 / aq=1:0.70
Language                                 : Japanese
Default                                  : Yes
Forced                                   : No
Audio
ID                                       : 2
Format                                   : AC-3
Format/Info                              : Audio Coding 3
Mode extension                           : CM (complete main)
Format settings, Endianness              : Big
Codec ID                                 : A_AC3
Duration                                 : 1h 27mn
Bit rate mode                            : Constant
Bit rate                                 : 384 Kbps
Channel(s)                               : 2 channels
Channel positions                        : Front: L R
Sampling rate                            : 48.0 KHz
Bit depth                                : 16 bits
Compression mode                         : Lossy
Stream size                              : 241 MiB (3%)
Language                                 : Japanese
Default                                  : Yes
Forced                                   : No
Text
ID                                       : 3
Format                                   : UTF-8
Codec ID                                 : S_TEXT/UTF8
Codec ID/Info                            : UTF-8 Plain Text
Language                                 : English
Default                                  : Yes
Forced                                   : Yes
Menu
00:00:00.000                             : en:00:00:00.000
00:05:05.680                             : en:00:05:05.680
00:09:19.017                             : en:00:09:19.017
00:11:45.079                             : en:00:11:45.079
00:17:44.730                             : en:00:17:44.730
00:22:25.177                             : en:00:22:25.177
00:26:42.684                             : en:00:26:42.684
00:30:55.187                             : en:00:30:55.187
00:38:24.010                             : en:00:38:24.010
00:44:59.322                             : en:00:44:59.322
00:53:45.139                             : en:00:53:45.139
00:59:08.587                             : en:00:59:08.587
01:04:52.222                             : en:01:04:52.222
01:12:22.713                             : en:01:12:22.713
01:19:46.865                             : en:01:19:46.865
01:24:55.716                             : en:01:24:55.716

精彩剧照


                                       

蓝光高清网提示您 点击下方附件名称 马上开始下载



温馨提示:
本站资源优先使用迅雷下载,迅雷会员下载,速度基本可以跑满宽带
如果遇到无资源或者版权问题无法下载,推荐使用115网盘离线下载(点击查看115网盘离线下载教程


  • 该资源需要您回复以后 刷新网页进行下载操作

  • 1、Tokyo.Fist.1995.JAPANESE.1080p.BluRay.x264.DD2.0-FGT.torrent 84KB 已下载 0 次

加入蓝光高清网VIP会员  无限制下载本站所有资源---点此加入

资源下载、资源播放、字幕使用、无法下载等常见问题---点这里

回复

使用道具 举报

懒得打字嘛,点击右侧快捷回复
高级模式
B Color Image Link Quote Code Smilies 上传

本版积分规则

关注0

粉丝0

帖子66561

发布主题
最新电影 论坛
广告位
联系我们
点击这里联系客服

服务时间:
周一到周日8:00-23:30

  • 打开微信扫一扫
    关注公众号

  • 手机QQ扫一扫
    添加客服

Archiver手机版蓝光高清网 ( 渝ICP备18006373号-2 )|网站地图

Powered by Discuz! X3.4  © 2001-2013 Comsenz Inc.