[动作] 一级戒备/特勤组/暗枪杀机 The.Sentinel.2006.1080p.BluRay.x264.DTS-FGT 7.95GB

[复制链接]
蓝鸟VIP会员 永久VIP 发表于 2019-8-21 23:25:43 | 显示全部楼层 |阅读模式 打印 上一主题 下一主题

马上注册,轻松下载,海量资源,让你轻松玩转社区。

您需要 登录 才可以下载或查看,没有帐号?立即注册

x


◎译  名 一级戒备/特勤组/暗枪杀机/格杀密令
◎片  名 The Sentinel
◎年  代 2006
◎国  家 美国
◎类  别 动作/犯罪/惊悚
◎语  言 英语
◎上映日期 2006-04-21
◎IMDb评分  6.1/10 from 40,544 users
◎IMDb链接  http://www.imdb.com/title/tt0443632/
◎豆瓣评分 6.2/10 from 4,274 users
◎豆瓣链接 http://movie.douban.com/subject/1482063/
◎片  长 108 分钟/Philippines: 107 分钟(cut)
◎导  演 Clark Johnson
◎主  演 迈克尔·道格拉斯 Michael Douglas
      基弗·萨瑟兰 Kiefer Sutherland
      伊娃·朗格利亚 Eva Longoria
      金·贝辛格 Kim Basinger
      马丁·唐文 Martin Donovan
◎简  介
  彼得·加里森(迈克尔·道格拉斯 Michael Douglas 饰)是美国白宫的一名特工以及第一夫人的贴身保镖。20年的特工生涯以及当年为总统挡下一枪的事迹都令他毫无疑问地成为特勤局里的明星。然而彼得万万没有想到的是,有一天他也会成为追捕对象。彼得接到消息说白宫内部混入了纳粹分子,暗杀总统的阴谋在酝酿,但掌握线索的特工查理随后却被残忍杀害。行事干练的特工大卫(基弗·萨瑟兰 Kiefer Sutherland 饰)和新手马琳(艾娃·朗格利亚 Eva Longoria 饰)受命负责此案,并对所有特工一一测谎,然而彼得却未能通过,他与第一夫人的暧昧关系也开始在局里流传,阴差阳错之间,彼得被认为就是那名预谋暗杀者。然而当所有人都竭力追捕彼得之时,真正的杀手正一步步向总统逼近。为了保护总统,逃亡中的彼得唯有说服大卫和马琳共同缉凶,才有可能扭转局面……
Video
ID                                       : 1
Format                                   : AVC
Format/Info                              : Advanced Video Codec
Format profile                           : [email protected]
Format settings, CABAC                   : Yes
Format settings, ReFrames                : 8 frames
Codec ID                                 : V_MPEG4/ISO/AVC
Duration                                 : 1h 48mn
Bit rate                                 : 9 019 Kbps
Width                                    : 1 920 pixels
Height                                   : 800 pixels
Display aspect ratio                     : 2.40:1
Frame rate mode                          : Constant
Frame rate                               : 23.976 fps
Color space                              : YUV
Chroma subsampling                       : 4:2:0
Bit depth                                : 8 bits
Scan type                                : Progressive
Bits/(Pixel*Frame)                       : 0.245
Stream size                              : 6.65 GiB (84%)
Writing library                          : x264 core 56 svn-680
Encoding settings                        : cabac=1 / ref=5 / deblock=1:-3:-3 / analyse=0x3:0x113 / me=umh / subme=7 / brdo=1 / mixed_ref=1 / me_range=16 / chroma_me=1 / trellis=1 / 8x8dct=1 / cqm=2 / deadzone=21,11 / chroma_qp_offset=0 / threads=3 / nr=0 / decimate=1 / mbaff=0 / bframes=3 / b_pyramid=1 / b_adapt=1 / b_bias=0 / direct=3 / wpredb=1 / bime=1 / keyint=250 / keyint_min=25 / scenecut=40(pre) / rc=2pass / bitrate=9019 / ratetol=1.0 / rceq=\ blurCplx^(1-qComp)\  / qcomp=0.60 / qpmin=10 / qpmax=51 / qpstep=4 / cplxblur=20.0 / qblur=0.5 / ip_ratio=1.40 / pb_ratio=1.30
Language                                 : English
Default                                  : Yes
Forced                                   : No
Audio
ID                                       : 2
Format                                   : DTS
Format/Info                              : Digital Theater Systems
Mode                                     : 16
Format settings, Endianness              : Big
Codec ID                                 : A_DTS
Duration                                 : 1h 48mn
Bit rate mode                            : Constant
Bit rate                                 : 1 509 Kbps
Channel(s)                               : 6 channels
Channel positions                        : Front: L C R, Side: L R, LFE
Sampling rate                            : 48.0 KHz
Bit depth                                : 24 bits
Compression mode                         : Lossy
Stream size                              : 1.14 GiB (14%)
Language                                 : English
Default                                  : Yes
Forced                                   : No
Text #1
ID                                       : 3
Format                                   : UTF-8
Codec ID                                 : S_TEXT/UTF8
Codec ID/Info                            : UTF-8 Plain Text
Language                                 : English
Default                                  : No
Forced                                   : No
Text #2
ID                                       : 4
Format                                   : UTF-8
Codec ID                                 : S_TEXT/UTF8
Codec ID/Info                            : UTF-8 Plain Text
Language                                 : Swedish
Default                                  : No
Forced                                   : No
Text #3
ID                                       : 5
Format                                   : UTF-8
Codec ID                                 : S_TEXT/UTF8
Codec ID/Info                            : UTF-8 Plain Text
Language                                 : Danish
Default                                  : No
Forced                                   : No
Text #4
ID                                       : 6
Format                                   : UTF-8
Codec ID                                 : S_TEXT/UTF8
Codec ID/Info                            : UTF-8 Plain Text
Language                                 : Spanish
Default                                  : No
Forced                                   : No
Text #5
ID                                       : 7
Format                                   : UTF-8
Codec ID                                 : S_TEXT/UTF8
Codec ID/Info                            : UTF-8 Plain Text
Language                                 : Hungarian
Default                                  : No
Forced                                   : No

精彩剧照


                                       

蓝光高清网提示您 点击下方附件名称 马上开始下载



温馨提示:
本站资源优先使用迅雷下载,迅雷会员下载,速度基本可以跑满宽带
如果遇到无资源或者版权问题无法下载,推荐使用115网盘离线下载(点击查看115网盘离线下载教程


  • 该资源需要您回复以后 刷新网页进行下载操作

  • 1、The.Sentinel.2006.1080p.BluRay.x264.DTS-FGT.torrent 80KB 已下载 0 次

加入蓝光高清网VIP会员  无限制下载本站所有资源---点此加入

资源下载、资源播放、字幕使用、无法下载等常见问题---点这里

回复

使用道具 举报

懒得打字嘛,点击右侧快捷回复
高级模式
B Color Image Link Quote Code Smilies 上传

本版积分规则

关注0

粉丝0

帖子66311

发布主题
最新电影 论坛
广告位
联系我们
点击这里联系客服

服务时间:
周一到周日8:00-23:30

  • 打开微信扫一扫
    关注公众号

  • 手机QQ扫一扫
    添加客服

Archiver手机版蓝光高清网 ( 渝ICP备18006373号-2 )|网站地图

Powered by Discuz! X3.4  © 2001-2013 Comsenz Inc.