[剧情] 大幻影/幻灭/超级幻想 The.Grand.Illusion.1937.FRENCH.1080p.BluRay.x264.DTS-FGT 7.65GB

[复制链接]
蓝鸟VIP会员 永久VIP 发表于 2019-8-21 23:26:42 | 显示全部楼层 |阅读模式 打印 上一主题 下一主题

马上注册,轻松下载,海量资源,让你轻松玩转社区。

您需要 登录 才可以下载或查看,没有帐号?立即注册

x


◎译  名 大幻影/幻灭/超级幻想/战地幻想曲
◎片  名 La grande illusion
◎年  代 1937
◎国  家 法国
◎类  别 剧情/战争
◎语  言 法语/德语/英语/俄语
◎上映日期 1937-06-08(法国)
◎IMDb评分  8.2/10 from 23,602 users
◎IMDb链接  http://www.imdb.com/title/tt0028950/
◎豆瓣评分 8.4/10 from 1,989 users
◎豆瓣链接 http://movie.douban.com/subject/1294808/
◎片  长 114分钟/94分钟(1937年版)/107分钟(德国)
◎导  演 让·雷诺阿 Jean Renoir
◎主  演 埃里克·冯·施特罗海姆 Erich von Stroheim
      让·迦本 Jean Gabin
      蒂塔·保洛 Dita Parlo
      朱利安·卡莱特 Julien Carette
◎简  介
  影片以第一次世界大战为背景,讲述三名法国俘虏在德国集中营越狱的故事。
  三名法国飞行员在一次任务执行中被德军击落,波迪奥、迈克和罗森塔尔三人被带到战俘集中营。波迪奥与德军监狱长罗芬斯坦都是贵族出身,有着共同的政治见解,二人在狱中成为朋友。三人随后发现狱友正进行越狱计划,他们挖出一条逃跑的通道。迈克和罗森塔尔也加入了挖掘行动。最后他们集体越狱,德军全力追捕,在逃亡中,波迪奥被罗芬斯坦击倒,两名法国俘虏迈克和罗森塔尔逃到一个德国农妇家中,在她的帮助下,二人经过种种波折逃到瑞士。
  本片是最早的越狱片之一,被评为最伟大的“越狱电影”之一,同时也是导演让·雷诺阿的反战杰作。
◎获奖情况
  第11届奥斯卡金像奖 (1939)
  最佳影片(提名)
Video
ID                                       : 1
Format                                   : AVC
Format/Info                              : Advanced Video Codec
Format profile                           : [email protected]
Format settings, CABAC                   : Yes
Format settings, ReFrames                : 4 frames
Codec ID                                 : V_MPEG4/ISO/AVC
Duration                                 : 1h 53mn
Bit rate                                 : 8 120 Kbps
Width                                    : 1 488 pixels
Height                                   : 1 080 pixels
Display aspect ratio                     : 1.378
Frame rate mode                          : Constant
Frame rate                               : 24.000 fps
Color space                              : YUV
Chroma subsampling                       : 4:2:0
Bit depth                                : 8 bits
Scan type                                : Progressive
Bits/(Pixel*Frame)                       : 0.211
Stream size                              : 6.30 GiB (82%)
Writing library                          : x264 core 120 r2164 da19765
Encoding settings                        : cabac=1 / ref=4 / deblock=1:0:0 / analyse=0x3:0x113 / me=umh / subme=7 / psy=1 / psy_rd=1.00:0.00 / mixed_ref=1 / me_range=16 / chroma_me=1 / trellis=1 / 8x8dct=1 / cqm=0 / deadzone=21,11 / fast_pskip=0 / chroma_qp_offset=-2 / threads=18 / sliced_threads=0 / nr=0 / decimate=1 / interlaced=0 / bluray_compat=0 / constrained_intra=0 / bframes=3 / b_pyramid=2 / b_adapt=1 / b_bias=0 / direct=1 / weightb=1 / open_gop=0 / weightp=2 / keyint=250 / keyint_min=24 / scenecut=40 / intra_refresh=0 / rc_lookahead=40 / rc=2pass / mbtree=1 / bitrate=8120 / ratetol=1.0 / qcomp=0.60 / qpmin=0 / qpmax=69 / qpstep=4 / cplxblur=20.0 / qblur=0.5 / ip_ratio=1.40 / aq=1:1.00
Language                                 : French
Default                                  : Yes
Forced                                   : No
Audio
ID                                       : 2
Format                                   : DTS
Format/Info                              : Digital Theater Systems
Mode                                     : 16
Format settings, Endianness              : Big
Codec ID                                 : A_DTS
Duration                                 : 1h 53mn
Bit rate mode                            : Constant
Bit rate                                 : 1 509 Kbps
Channel(s)                               : 2 channels
Channel positions                        : Front: L R
Sampling rate                            : 48.0 KHz
Bit depth                                : 24 bits
Compression mode                         : Lossy
Delay relative to video                  : 11ms
Stream size                              : 1.20 GiB (16%)
Language                                 : French
Default                                  : Yes
Forced                                   : No
Text #1
ID                                       : 3
Format                                   : UTF-8
Codec ID                                 : S_TEXT/UTF8
Codec ID/Info                            : UTF-8 Plain Text
Language                                 : English
Default                                  : Yes
Forced                                   : Yes
Text #2
ID                                       : 4
Format                                   : UTF-8
Codec ID                                 : S_TEXT/UTF8
Codec ID/Info                            : UTF-8 Plain Text
Language                                 : French
Default                                  : No
Forced                                   : No

精彩剧照


                                       

蓝光高清网提示您 点击下方附件名称 马上开始下载



温馨提示:
本站资源优先使用迅雷下载,迅雷会员下载,速度基本可以跑满宽带
如果遇到无资源或者版权问题无法下载,推荐使用115网盘离线下载(点击查看115网盘离线下载教程


  • 该资源需要您回复以后 刷新网页进行下载操作

  • 1、The.Grand.Illusion.1937.FRENCH.1080p.BluRay.x264.DTS-FGT.torrent 77KB 已下载 0 次

加入蓝光高清网VIP会员  无限制下载本站所有资源---点此加入

资源下载、资源播放、字幕使用、无法下载等常见问题---点这里

回复

使用道具 举报

懒得打字嘛,点击右侧快捷回复
高级模式
B Color Image Link Quote Code Smilies 上传

本版积分规则

关注0

粉丝0

帖子69274

发布主题
最新电影 论坛
广告位
联系我们
点击这里联系客服

服务时间:
周一到周日8:00-23:30

  • 打开微信扫一扫
    关注公众号

  • 手机QQ扫一扫
    添加客服

Archiver手机版蓝光高清网 ( 渝ICP备18006373号-2 )|网站地图

Powered by Discuz! X3.4  © 2001-2013 Comsenz Inc.