游客您好
第三方账号登陆
  • 点击联系客服

    在线时间:9:00-18:00

    客服QQ

    1371333023

    电子邮件

    lanniao@1080pro.net
  • 烧友之家APP

    随时掌握烧友资讯

  • 扫描二维码

    关注微信公众号

推荐阅读
蓝鸟
未知星球 | 未知职业
  • 关注0
  • 粉丝2
  • 帖子93936
精选帖子
开启左侧

虎胆龙威3 4k Die.Hard.With.a.Vengeance.1995.2160p.AMZN.WEB-DL.x265.10bit.HDR10plus.DTS-HD.MA.5.1.电影下载—16.47 GB

[复制链接]
蓝鸟 发表于 2021-3-1 09:55:29 | 显示全部楼层 |阅读模式 打印 上一主题 下一主题
虎胆龙威3
上映时间:1995年
类型:动作 惊悚 冒险 
地区:美国 
导演:约翰·麦克蒂尔南
主演:布鲁斯·威利斯 / 杰瑞米·艾恩斯 / 塞缪尔·杰克逊 / 格雷厄姆·格林 / 考林·加普
画质标准:4K HDR  封装音轨:DTS-HD.MA 5.1 
豆瓣评分:7.9分

加入蓝光高清网,轻松下载最新4k资源

您需要 登录 才可以下载或查看,没有帐号?立即注册

x
( d* n0 u/ g& X  h) x5 ~
" l( F) |* ~( S  q1 Y
简       介
2 @8 K5 V1 k  Y1 y6 y7 d  w; s6 O
  西蒙(杰里米•艾恩斯 饰)是个头脑慎密,心狠手毒的恐怖分子。为了实现一场惊天大阴谋,他先是制造了一起爆炸案。在警方紧张破案之际,他又给警长约翰•麦卡伦(布鲁斯•威利斯 饰)打电话,声称警方必须听从他的一系列指令,否则他将继续在全市搞爆炸活动。
+ L9 ?8 Y4 g, _3 p  在杂货店老板宙斯(塞缪尔•杰克逊 饰)的帮助下,麦卡伦完成了西蒙的一系列指令,多次死里逃生。然而意犹未尽的西蒙,命令麦克莱恩去拆除街心花园的炸弹,又宣称在纽约市一所小学校内安放了炸弹。警方和市政官员几乎全部出动,去各小学疏散学生,搜寻炸弹。3 j2 [; q. W* o# n
  麦卡伦逐渐对西蒙一个又一个的指令产生疑虑,他终于发现西蒙调动全市警力背后的真相…

5 [2 v2 G3 }3 {; E; W" c2 z# a* h: N7 k, K) |- o$ `8 y

1 t" @* @6 m- m. q& \, ]影片参数
6 J" T; v: X% N( h! p
终极警探3(台) / 纽约大劫案/虎胆龙威3 4k Die.Hard.With.a.Vengeance.1995.2160p.AMZN.WEB-DL.x265.10bit.HDR10plus.DTS-HD.MA.5.1.电影信息
: o  X' a' `: ]Video
; Q( ?; K9 e- J( H; }9 g9 @6 s. jID : 15 ?, B% }' \3 b1 B$ z* h
Format : HEVC' ?9 Y0 G- K* R5 A! f. u1 \( y+ {
Format/Info : High Efficiency Video Coding+ `: G5 ?* p' z2 Q- |/ E/ p
Format profile : Main 10@L5@Main
0 A1 P3 L  _" H1 d9 h. wHDR format : SMPTE ST 2094 App 4, Version 1, HDR10+ Profile B compatible
& R" r' G) m5 q  QCodec ID : V_MPEGH/ISO/HEVC
$ c; h. ?, G1 T5 h: w/ u$ `Duration : 2 h 8 min9 B+ i9 S8 q  w4 n2 ^" N5 r( O# d
Bit rate : 14.9 Mb/s# [1 p5 O  H* X
Width : 3 840 pixels' u3 Q" W) U5 s! a" ~$ A+ U
Height : 1 600 pixels( y5 L1 q2 Y8 g- @) Z# U" C
Display aspect ratio : 2.40:1
) S) a9 j2 G1 y, B$ ?1 PFrame rate mode : Constant
' R; t  G; L9 x( gFrame rate : 23.976 (24000/1001) FPS8 L5 w+ D' y+ v
Color space : YUV+ @' w9 G: P( u8 R: b. f
Chroma subsampling : 4:2:0& L; L4 y  J1 z% K/ {6 F5 `
Bit depth : 10 bits
- e$ M1 j) L% B1 d+ Y- zBits/(Pixel*Frame) : 0.101
  C' U1 x( @' \: G! j! L' IStream size : 13.4 GiB (81%)$ N* g1 v* u9 A7 k0 G' I  h
Default : Yes: Y) i( @% x3 n0 S# {! [
Forced : No7 R1 l3 Y9 j8 d1 ?' N' F% W
Color range : Limited
! m+ l) r' ^9 }. y3 q! D$ LColor primaries : BT.2020
9 J- m" O; T- y& {  H4 q5 X5 ^Transfer characteristics : PQ; \. ]' D, T4 O" t2 A
Matrix coefficients : BT.2020 non-constant2 Q8 ]$ a5 v" h/ }7 x" ^$ g6 ~
Mastering display color primaries : Display P3" b8 M# C- X' }
Mastering display luminance : min: 0.0050 cd/m2, max: 1000 cd/m2
) b% ]( P7 y7 \  G- q; v  e$ O0 U' x1 z/ m/ e  p) D
" x8 k* k) I% r6 x4 v
Audio #1. x$ M' ]% w7 U2 M2 T& B
ID : 2# {+ H* B9 J7 b+ w; [
ID in the original source medium : 4352 (0x1100)
  u3 t& t4 W1 \5 pFormat : DTS XLL0 @+ f5 t& L8 G& o7 u' E5 x
Format/Info : Digital Theater Systems
. O4 b; N% d( l5 z" n7 O! VCommercial name : DTS-HD Master Audio* N- E. \6 Z. C! P
Codec ID : A_DTS
# B; t' h: ~+ g! ^2 l# \Duration : 2 h 8 min
. G0 Z: @  q; Y$ w1 s& IBit rate mode : Variable
2 G+ t$ M1 u( k' oBit rate : 2 703 kb/s. G/ h3 _7 n+ \2 }& m
Channel(s) : 6 channels1 N' p  G6 p) K3 d. v
Channel layout : C L R Ls Rs LFE: Z5 X8 O2 q& H1 Q4 C3 L
Sampling rate : 48.0 kHz$ v4 _. p% U; p( d
Frame rate : 93.750 FPS (512 SPF)$ F, E: b0 e" x
Bit depth : 24 bits
# Y* {: }. [5 W2 A; JCompression mode : Lossless$ q3 [. _6 k7 N; S+ }& [3 J! L
Stream size : 2.43 GiB (15%)+ a* G& |% d$ f  b
Title : DTS-HD MA 5.1
# N6 T. k8 U; i1 dLanguage : English
, ]/ i& Z  K  _7 sDefault : Yes
. n( \* u% |; c+ |. L; A/ i, e( BForced : No" e' S7 x- W6 O$ o3 x* s1 o+ I
Original source medium : Blu-ray
) ^( B$ Z/ o% ?
2 P, ~4 s- Z4 l& t

3 [3 z; n( [: Z4 R# NAudio #2
% E4 J0 e' t0 r2 _4 \. P, oID : 3' W" ^9 C( D8 Z1 s/ h* t/ G
Format : E-AC-3* C! R7 N% x: W/ @/ q" Q0 P/ n
Format/Info : Enhanced AC-3
* O3 L2 j* ]  D% b" g- O7 mCommercial name : Dolby Digital Plus
) e% W1 a7 m/ F+ Z1 M; _" bCodec ID : A_EAC3
. M% s9 Q# \; A% b5 r1 [( kDuration : 2 h 8 min: \7 g+ W+ d2 j
Bit rate mode : Constant
% B9 P/ o5 u2 ABit rate : 640 kb/s
" c3 l( [; j9 G4 T8 Y6 g9 K2 c" IChannel(s) : 6 channels1 b, A! z1 Q7 E) h4 Q+ ^4 e" ]' v" s
Channel layout : L R C LFE Ls Rs
; B, @' q% O2 A# PSampling rate : 48.0 kHz
" A1 ^" D, c; |Frame rate : 31.250 FPS (1536 SPF)
6 U) U. H6 e/ N0 dCompression mode : Lossy" q+ D% Z+ Q$ X$ ?( E4 @
Stream size : 588 MiB (3%)* g1 {6 x7 z- N/ a2 v9 Y: m
Title : DDP 5.1
1 |. Z- p1 r+ E8 ?' zLanguage : English( t% S& W$ D0 h9 L0 e+ x& t
Service kind : Complete Main: L' s) J: ~" _2 }4 Z/ h
Default : No
! ~" o! k  R: @6 d3 o! ~Forced : No# ~8 `3 R, d- a* G5 h  C5 ~
( ^, |' F$ t) n! x% H+ C: q

( b# p* P* q& o% n/ E# ^6 RText #1
( Q0 Q0 q( D* n* X6 }; z$ j, @ID : 4
% X# Y! q" p% r' uFormat : UTF-8: i4 w7 e9 |: u4 L2 h0 |
Codec ID : S_TEXT/UTF8/ N! E- ]4 n8 W+ ]- b
Codec ID/Info : UTF-8 Plain Text
1 c  u3 E$ Y8 W3 q+ w$ H+ HDuration : 2 h 0 min, T7 }6 X; E. _. G6 d; k' t
Bit rate : 75 b/s$ c- @! c  P* S! A( M* h9 Z7 e
Count of elements : 1955
7 G; v) ?$ K6 W* _' C7 OStream size : 66.9 KiB (0%)8 {# x/ n+ C" T5 k/ D  ?4 e% v9 m
Title : English-SRT
& J4 y; M' O" bLanguage : English
' Y: N* e5 o! ?8 [& aDefault : Yes
4 {' }9 J% m5 j: M8 r" FForced : No
, B, o0 k' a4 }  `' ]* i$ F
1 Q3 ?- M- e$ r3 @
$ d( p$ j- }+ h% W$ ?5 w. ~4 W
Text #22 s9 ]  o- E$ T
ID : 5' l. P- G. i% X0 r: y6 ~
ID in the original source medium : 4608 (0x1200)
9 ]- L+ v+ v& P+ M- [7 \Format : PGS: l7 d& Q' ~. w
Muxing mode : zlib
# v2 e: D( }/ V5 o) kCodec ID : S_HDMV/PGS
& p4 |5 E" U" X) ^. j, uCodec ID/Info : Picture based subtitle format used on BDs/HD-DVDs8 D2 H- q1 H7 F8 p
Duration : 2 h 0 min% J, E  Q- B0 e- U2 T9 U8 b$ [* M% C
Bit rate : 79.4 kb/s
8 T0 S1 n$ Y2 e- Z+ VCount of elements : 3490
  E1 p0 T" }, V) `Stream size : 68.4 MiB (0%)- N" F+ o1 |& w- R
Title : English-PGS
6 m9 z6 u; ~. D0 v9 x) I# H# l; GLanguage : English$ M) k. D& w+ e2 o) @  r+ }
Default : No1 n; r9 M% b, p2 U) H
Forced : No
0 @: b! ], f4 L7 R; `Original source medium : Blu-ray% ~& O) t: b- a$ c6 U, d

8 r$ ^: n( k' x# I

! v9 [/ l/ `& c* }0 M4 w8 O0 V+ Z) V" QText #3- s: v; d1 q5 J1 Y2 W
ID : 6
* P/ R: `* d" X2 _' Z* t4 sID in the original source medium : 4609 (0x1201)) I7 N: k; |* g( |/ M+ u8 h+ X$ u
Format : PGS
# Z* J0 _# W# v- p, FMuxing mode : zlib; |0 Q, j1 O* x' ?) r
Codec ID : S_HDMV/PGS  ?. d* P$ e" c9 x+ A
Codec ID/Info : Picture based subtitle format used on BDs/HD-DVDs
+ r- {& U. |8 t% s9 }4 oDuration : 1 h 59 min+ U# `& r7 F% g+ Z
Bit rate : 59.1 kb/s9 c- b- I# @2 t! B4 R) L' z
Count of elements : 3265
  F( W6 h- b. l* m  GStream size : 50.5 MiB (0%)
. G) ], p4 G, a+ j9 |Title : Spanish-PGS. y& _% r/ m* e) j
Language : Spanish- y1 c; k' w. B; }% A* N9 A4 z9 z
Default : No* F/ x# ^: T/ C! m9 J7 {* p
Forced : No5 p/ V& w* k: z  s: p( h( l
Original source medium : Blu-ray, E+ a& ~/ T2 {; t5 B: N, ~7 E" g

3 E( X" p# d+ [( ]3 T1 ^( r% a
# z; @' M9 t+ e& V; T
Text #4
3 U$ d8 y  L# J9 w. Q& x9 _* ?; TID : 70 b6 p& h, M) L- V! X. U, b
ID in the original source medium : 4610 (0x1202)! X* A' G; Z* s- z( g/ A, o
Format : PGS$ O  c' `" L" ~- i7 y
Muxing mode : zlib
9 H/ J' z. D! m+ j3 YCodec ID : S_HDMV/PGS+ i- x: T& ?3 O1 B* k
Codec ID/Info : Picture based subtitle format used on BDs/HD-DVDs
! G4 U! E# g5 ?0 l+ G7 {Duration : 2 h 0 min) W) S9 ^  Z$ W7 w0 W
Bit rate : 62.4 kb/s
$ t1 K1 J! n& C6 V+ P/ {: g1 UCount of elements : 35372 n- J7 l- d( ?' Y
Stream size : 53.7 MiB (0%)
0 v6 j: b4 G% I$ M7 bTitle : Chinese-PGS; ^9 X: m4 R7 c/ y
Language : Chinese
' g% k  J' n+ q5 VDefault : No" @$ f$ h3 e4 C  C( W
Forced : No
  R' L4 ~4 `' Q/ V- ZOriginal source medium : Blu-ray
. _2 K# Y- n& b& U' Z2 p! }5 @  H4 L; \

4 n8 s! a1 B1 e5 Z2 I6 GText #5
! v) |4 V. M7 p  JID : 8$ o9 r* k' B- @" Y3 b5 G
ID in the original source medium : 4611 (0x1203)
+ P7 u; y& `0 M# f4 sFormat : PGS+ P$ q+ r5 L+ L2 J8 ~. E7 T/ a
Muxing mode : zlib$ V* ^- f! O; L
Codec ID : S_HDMV/PGS! a# `1 }$ |4 o. r/ w# [! _
Codec ID/Info : Picture based subtitle format used on BDs/HD-DVDs
8 V, U2 w# o" aDuration : 2 h 0 min
. T6 D) Q  O/ z+ X9 gBit rate : 58.2 kb/s
$ f" ~3 Z. }# k6 [0 w, S1 b' XCount of elements : 3625( ?" ~% R$ q; q) ^1 p; n
Stream size : 50.1 MiB (0%)
' b8 l% ]1 g) g8 h5 NTitle : Korean-PGS
( M" n, w" R: F, {6 @) ?& TLanguage : Korean
* W. y6 }$ j  W7 H! N: k2 CDefault : No
+ n% Z/ Y  C( H3 pForced : No
- b0 V$ d1 f1 q0 a# K0 GOriginal source medium : Blu-ray; V6 t% A) n8 i6 {

/ ]' p. q) S& \1 o0 B3 b* C

0 M( b/ `# a$ L$ Q3 IMenu
# n* ~4 J+ x# K: d2 W0 o! f00:00:00.000 : en:Studio Logos
5 G/ Q1 r; O) Z% c! {. e0 p00:00:46.000 : en:Summer in the City1 J3 _% ?- u" Y
00:01:55.000 : en:A Police Station Gets a Call from Simon
8 E* p, \: G7 m  v00:03:52.000 : en:John Rides with His Team0 h7 T' z. p  l9 _6 _5 D
00:06:51.000 : en:John Walks on the Street with a Sign
2 m2 G& {1 y6 P% P9 W00:07:44.000 : en:Raymond and Dexter Bring a Radio to Zeus
, [+ g* g! I  e1 _5 ]00:09:41.000 : en:John Gets Noticed! K! `) J; ?5 o( \1 l- z
00:13:33.000 : enr. Schiller Deconstructs the Terrorists Mind
7 H1 R8 f, f: d6 v; G( `00:15:16.000 : en:Weiss Explains the Functions of a Binary Explosive
: g9 J2 ~6 ~: z6 y7 h00:18:00.000 : en:Simon Hangs Up* T' j) E9 T$ k/ q* X* O7 F
00:22:48.000 : en:John and Zeus Find the Pay Phone0 r( @! L& V0 m& D2 Z
00:28:00.000 : en:John and Zeus Speed through Traffic
5 X* V7 y4 B) m7 P1 X00:32:19.000 : en:John and Zeus Split Up
% g$ E7 J" i4 {% q! Q' t" i00:33:00.000 : en:John Looks for the Bomb
5 O2 F6 w% ]% E00:34:32.000 : en:Zeus Looks for the Pay Phone
0 [! y) [2 V8 X; v00:37:43.000 : en:John Tries to Save the Train$ Q6 p9 N" ~2 ~. v0 T
00:39:33.000 : en:John Gets Suspicious  f8 j( E+ W0 }0 N& U" w" z
00:40:19.000 : en:Agents Question John and Zeus( s( O. u* Q( G: p' K0 R, H
00:46:15.000 : en:Cobb Briefs Law Enforcement! M* z. @9 ^$ s/ j- O$ b. C
00:47:23.000 : enolice Spread Out
2 L4 B, N% C/ X6 B+ E* s* w, j" a  p00:48:49.000 : en:Simon Arrives at the Scene
% G0 ^: ]8 P3 w% {$ q3 g00:50:31.000 : en:Simon and His Men Enter the Bank: v' E& R+ w& i. e
00:51:33.000 : en:Walsh Leads into the Subway4 M' e) G" ]; ^, U
00:52:06.000 : en:John Recalls the LA Thing3 M6 O: u; r3 [$ B' E0 g5 t3 a
00:52:39.000 : en:Simon Inquires about Currency Exchange
; M# b! p4 r/ O( F% m00:58:39.000 : en:John and Zeus Receive a Riddle& k6 l; T- @9 a" U/ u
01:04:44.000 : en:John Stops a Thief6 \+ }5 [9 L' l! M
01:07:41.000 : en:John Enters the Bank3 j0 L! j/ A- H6 T* m' F
01:10:12.000 : en:John and Zeus Reunite, E# o8 {  o3 {9 r# f
01:11:37.000 : en:John and Zeus Chase the Dump Trucks* |" b5 D9 U2 B8 I( Z/ e, i
01:14:09.000 : en:Simon Calls a Radio Station
3 y  |, g7 [% ]01:17:09.000 : en:John Asks about the Aqueduct Tunnel
1 b. D9 T9 m. |& P2 w  w! y1 \01:20:18.000 : en:Zeus Arrives at the Stadium  y0 w) p' C9 @5 P
01:21:19.000 : en:Cobb Arrives at Chester A. Arthur School; x8 `! J3 F, I" o2 w
01:22:25.000 : en:John Responds to Simon# b% W( V+ R6 \) h4 }9 g
01:24:25.000 : en:Cobb and Weiss Look for the Bomb
6 ?7 @2 b+ Z+ P/ d01:24:44.000 : en:John Hears a Rumbling Sound; j! m  s8 }* Z+ S' i' {
01:27:44.000 : en:Weiss Opens the Bomb Casing
$ u8 G4 g" l; G5 M& e* }01:29:02.000 : en:Raymond and Dexter Are Suspicious about Lambert
4 W# e3 \" Y1 M# u! [9 B+ w) m9 A01:30:10.000 : en:John Returns Fire
6 A% T' Y$ G5 \01:31:19.000 : en:Janitor Makes the Last Sweep of the School% x( I" m) D8 G% |/ L
01:32:36.000 : en:John and Zeus Prepare to Board the Boat
, u, H, [/ _* l$ D01:35:12.000 : en:John and Zeus Sneak around the Boat
( z3 p: b; G  W' ^6 f# V4 x01:39:25.000 : enolice Evacuate the School
3 E* S* w2 s$ m- ^. e4 `$ X7 _% `" y01:43:53.000 : en:Simon Finds John9 {% Y2 g# P% Z! j- A& R' z# K
01:45:57.000 : en:John and Zeus Get Tied Up
8 m( s9 I' k8 ?1 K01:47:54.000 : en:John Asks Zeus about Lock Picking' s) c1 z. e# |( O% E5 H9 I2 z% S
01:52:12.000 : en:John Calls His Wife- r4 J& c/ g. p' M- n
01:53:52.000 : en:Simon Raises a Toast with His Men$ E2 `# u- M/ n# `9 T
01:56:11.000 : en:John Arrives by Helicopter3 y# _' E; j; M  R# E: a
01:58:45.000 : en:John Distracts the Helicopter, \" ]  L/ b$ }( s6 S% K4 ^( g8 k
02:01:13.000 : en:End Credits
6 Z2 w, \+ R- D: [4 O

2 U6 }1 c4 `; @& M( v蓝光高清网提示您  点击下方附件名称  马上开始下载
% ?% Z& l7 a8 P7 u
; f$ [3 t& Y  c- e2 D1 k: B
8 d. O4 G6 |) P$ Q( I' u2 d0 ]  p* I
终极警探3(台) / 纽约大劫案/虎胆龙威3 4k Die.Hard.With.a.Vengeance.1995.2160p.AMZN.WEB-DL.x265.10bit.HDR10plus.DTS-HD.MA.5.1.电影下载
( d1 Y6 p; e' Y( \
' Q) W6 G2 u! y% c
虎胆龙威3 4k Die.Hard.With.a.Vengeance.1995.2160p.AMZN.WEB-DL.x265.10bit.HDR10plus.DTS-HD.MA.5.1【16.47 GB】
/ I6 ~. h/ L% o( R 虎胆龙威3 4k Die.Hard.With.a.Vengeance.1995.2160p.AMZN.WEB-DL.x265.10bit..torrent (文件大小:82.96 KB)
( q! ?8 X  h9 \

0 k( t, @* S1 J
虎胆龙威3字幕下载
& w: G: h3 a) L, { 虎胆龙威.3.Die.Hard.With.a.Vengeance.1995.BluRay.1080p.x264.DTS-HD.MA.5.1-HDChina.zip (文件大小:276.04 KB)

# R* I- b7 j0 `# N* ~. E' I3 d: s% o. U
" G3 b) g2 f- i4 P
加入蓝光高清网VIP会员  无限制下载本站所有资源---点这里

资源下载、资源播放、字幕使用、无法下载等常见问题---点这里
回复

使用道具 举报

精彩评论3

gdlmxia 发表于 2021-3-1 14:37:50 | 显示全部楼层
太好啦&萬分感謝版主的無私發佈分享%
回复 支持 反对

使用道具 举报

pscel 发表于 2021-3-2 08:34:11 | 显示全部楼层

% r% t. m( j- y1 L祝蓝光高清网越办越红火。
回复 支持 反对

使用道具 举报

小李手机认证 发表于 2021-4-15 10:25:14 来自手机 | 显示全部楼层
衷心感谢分享
回复 支持 反对

使用道具 举报

您需要登录后才可以回帖 登录 | 立即注册

本版积分规则

烧友之家(蓝光高清网)本站内容部分由用户自主分享和转载自互联网,转载目的在于传递更多信息,并不代表本网赞同其观点和对其真实性负责。 如有侵权、违反国家法律政策行为,请联系我们,我们会第一时间及时清除和处理!
蓝光高清网 综合资讯平台
关注我们
  • 官方微信公众号
  • 扫码下载官方APP

X3.4 Licensed© 2001-2013 蓝光高清网 烧友之家APP |网站地图