游客您好
第三方账号登陆
  • 点击联系客服

    在线时间:9:00-18:00

    客服QQ

    1371333023

    电子邮件

    lanniao@1080pro.net
  • 烧友之家APP

    随时掌握烧友资讯

  • 扫描二维码

    关注微信公众号

推荐阅读
蓝鸟
未知星球 | 未知职业
  • 关注0
  • 粉丝2
  • 帖子93857
精选帖子
开启左侧

准备好了没 4k Ready.Or.Not.2019.2160p.WEB-DL.x265.8bit.SDR.DTS-HD.MA.5.1.电影下载—13.22 GB

[复制链接]
蓝鸟 发表于 2021-3-1 10:12:16 | 显示全部楼层 |阅读模式 打印 上一主题 下一主题
准备好了没
上映时间:2019年
类型:惊悚 恐怖 悬疑 
地区:美国 
导演:马特·贝蒂内利-奥尔平 / 泰勒·吉勒特
主演:萨玛拉·维文 / 安迪·麦克道威尔 / 马克·奥布莱恩 / 亚当·布罗迪 / 亨利·科泽尼
画质标准:4K SDR  封装音轨:DTS-HD.MA 5.1 
豆瓣评分:6.7分

加入蓝光高清网,轻松下载最新4k资源

您需要 登录 才可以下载或查看,没有帐号?立即注册

x

1 p5 G) U+ r  I% T
: G1 ?# x1 m$ `" }( N/ Y4 L简       介
! f7 |+ x7 L" C- Q3 |' T8 Y* ]- s+ o3 S

5 |" _/ j7 I$ C: F  格雷斯(萨玛拉·维文 Samara Weaving 饰)自幼失去双亲,成长在寄养家庭之中,这样的她再也没有想到自己竟然邂逅了豪门之子亚里克斯(马克·奥布莱恩 Mark O'Brien 饰),两人的恋爱顺利,通往婚姻的道路一路亮起绿灯。8 {  e, N8 t; ~& ^
  终于,格雷斯满心期待的那一天到来了,然而,在新婚之夜,亚里克斯却告诉了格雷斯一个非常古怪的消息。原来,在亚里克斯的家族中流传着这样一个传统,每一位嫁进来的新娘都必须在结婚当晚完成一个游戏,而游戏的具体内容则由抽牌来决定。虽然对这样的规矩万分不理解,但格雷斯还是决定忍一时风平浪静。万万没想到,格雷斯抽到了最糟糕的那张牌——捉迷藏,格雷斯必须在天亮之前找到一个可以躲藏的地方,不能够被任何的人发现,否则就只有死路一条。

  N+ V' |. N, V! R/ ]( B7 X8 `+ M7 ~* z

  ]% ~+ W* l- m1 O2 P影片参数3 w7 k* d3 H& m1 ?, O4 F
爆血新婚夜(港) / 弑婚游戏(台)/准备好了没4k Ready.Or.Not.2019.2160p.WEB-DL.x265.8bit.SDR.DTS-HD.MA.5.1.电影信息
3 O+ ?$ H6 f9 t9 b2 FVideo
; }, m3 I0 m# _; [2 ^1 `7 l$ r2 L% TID : 1
. F4 L) Z6 {; w+ o: I* ^2 dFormat : HEVC
- H; k# I' q/ g$ m* q1 M+ NFormat/Info : High Efficiency Video Coding6 [! v' @2 \4 d! B% z" w
Format profile : Main@L5.1@Main
2 y8 w: w8 L  j* S0 y9 w# [Codec ID : V_MPEGH/ISO/HEVC
+ q3 _0 q$ n9 k5 `) F- XDuration : 1 h 35 min
4 p  v4 b4 F( o1 G, [2 ^1 `Bit rate : 15.9 Mb/s* C' D  f4 m$ l9 a0 {8 u
Width : 3 840 pixels
: U7 S* ^& S! ~$ k" z7 D" d7 c$ |Height : 2 160 pixels
/ o: [6 X# S5 A/ oDisplay aspect ratio : 16:9. @, U9 u: e: ]
Frame rate mode : Constant
7 a/ n9 o& t# T( r3 Z8 p1 l' UFrame rate : 23.976 (24000/1001) FPS- U) \' _2 h, e0 H
Color space : YUV
4 B6 ]& `  O7 b& I; GChroma subsampling : 4:2:0# C1 C3 _4 w7 H7 Z
Bit depth : 8 bits7 @" C: g$ c  K
Bits/(Pixel*Frame) : 0.080; I1 q4 [4 k; j4 [; S
Stream size : 10.6 GiB (80%)
7 L# S* Z3 }; X# sWriting library : x265 3.0_RC+11-72188bd2f034:[Linux][GCC 4.9.2][64 bit] 8bit+10bit+12bit
0 N! U3 G5 y& SEncoding settings : cpuid=1111039 / frame-threads=3 / wpp / no-pmode / no-pme / no-psnr / no-ssim / log-level=2 / input-csp=1 / input-res=3840x2160 / interlace=0 / total-frames=0 / level-idc=51 / high-tier=1 / uhd-bd=0 / ref=4 / no-allow-non-conformance / no-repeat-headers / annexb / no-aud / no-hrd / info / hash=0 / no-temporal-layers / no-open-gop / min-keyint=24 / keyint=48 / gop-lookahead=0 / bframes=3 / b-adapt=0 / no-b-pyramid / bframe-bias=0 / rc-lookahead=15 / lookahead-slices=8 / scenecut=0 / radl=0 / no-splice / no-intra-refresh / ctu=64 / min-cu-size=8 / no-rect / no-amp / max-tu-size=32 / tu-inter-depth=1 / tu-intra-depth=1 / limit-tu=0 / rdoq-level=0 / dynamic-rd=0.00 / no-ssim-rd / signhide / no-tskip / nr-intra=0 / nr-inter=0 / no-constrained-intra / strong-intra-smoothing / max-merge=2 / limit-refs=3 / no-limit-modes / me=1 / subme=2 / merange=57 / temporal-mvp / weightp / no-weightb / no-analyze-src-pics / deblock=0:0 / sao / no-sao-non-deblock / rd=2 / no-early-skip / rskip / fast-intra / no-tskip-fast / no-cu-lossless / no-b-intra / no-splitrd-skip / rdpenalty=0 / psy-rd=2.00 / psy-rdoq=0.00 / no-rd-refine / no-lossless / cbqpoffs=0 / crqpoffs=0 / rc=cbr / bitrate=16000 / qcomp=0.60 / qpstep=4 / stats-write=0 / stats-read=0 / vbv-maxrate=16000 / vbv-bufsize=32000 / vbv-init=0.9 / ipratio=1.40 / pbratio=1.30 / aq-mode=2 / aq-strength=1.00 / cutree / zone-count=0 / no-strict-cbr / qg-size=32 / no-rc-grain / qpmax=69 / qpmin=0 / no-const-vbv / sar=1 / overscan=0 / videoformat=5 / range=0 / colorprim=2 / transfer=2 / colormatrix=2 / chromaloc=0 / display-window=0 / max-cll=0,0 / min-luma=0 / max-luma=255 / log2-max-poc-lsb=8 / vui-timing-info / vui-hrd-info / slices=1 / no-opt-qp-pps / no-opt-ref-list-length-pps / no-multi-pass-opt-rps / scenecut-bias=0.05 / no-opt-cu-delta-qp / no-aq-motion / no-hdr / no-hdr-opt / no-dhdr10-opt / no-idr-recovery-sei / analysis-reuse-level=5 / scale-factor=0 / refine-intra=0 / refine-inter=0 / refine-mv=0 / refine-ctu-distortion=0 / no-limit-sao / ctu-info=0 / no-lowpass-dct / refine-analysis-type=0 / copy-pic=1 / max-ausize-factor=1.0 / no-dynamic-refine / no-single-sei / no-hevc-aq / qp-adaptation-range=1.00
6 t% p' U; Y- e" x' bDefault : Yes
2 y; |* \# r& j5 U: @Forced : No
' _  o5 @( k9 r; c+ L4 V1 S5 d
: C  Q6 f0 w/ e% P, p$ h" `

  R: G+ I5 s, MAudio #1
# y* e* e- A. T: ]: ?+ p6 WID : 2
& _. R& n- S  E( V% `$ Q  [9 BFormat : DTS XLL) S2 m& o4 u  W/ y7 M/ M# j  ^
Format/Info : Digital Theater Systems: ]9 ?2 M3 j* m6 h
Commercial name : DTS-HD Master Audio
+ R. m# m& e* p6 k3 F* |Codec ID : A_DTS
! C9 @( d% Q) m1 w% R( ADuration : 1 h 35 min
- \% A$ e5 }; Q1 j% {Bit rate mode : Variable
; f4 ^3 |; U9 C. x! q  iBit rate : 3 698 kb/s
+ v+ _* v( i1 _, ?Channel(s) : 6 channels6 v, j1 {* [8 v% s3 Y
Channel layout : C L R Ls Rs LFE
9 d# O( G+ v* ]% A. _, m. KSampling rate : 48.0 kHz
) X: \" k; X0 P& ]% a( \Frame rate : 93.750 FPS (512 SPF)  l2 N6 }4 [0 _& O
Bit depth : 24 bits
" p( E6 F, |" i; H$ M9 r% k* zCompression mode : Lossless
' ?" l/ Y" F" eStream size : 2.46 GiB (19%)
+ z# m6 o5 [& u% [: v' e6 N6 E$ ATitle : DTS-HD MA 5.1
/ d, m/ L9 [1 |9 a; C2 LLanguage : English* t8 g+ H( Q! E7 M0 W! Q$ h
Default : Yes
: K5 o! V- q0 x! O1 _% z0 cForced : No/ A9 t. W( q6 m# Q

  \+ v* C3 {8 T9 I

; x! k0 x, i/ y9 _Audio #29 f; R  g1 S/ s/ C# E8 w0 [
ID : 3
  F% q- }. P/ XFormat : E-AC-3
0 @( |/ T" t. [* LFormat/Info : Enhanced AC-3: r$ P  P; r& `9 a
Commercial name : Dolby Digital Plus* G) g& Y, B* X; j' Q# u- X
Codec ID : A_EAC3
2 a: z6 j1 U+ n: s$ C- cDuration : 1 h 35 min# s. K6 ]* ^) _+ j4 j
Bit rate mode : Constant6 ~  k1 t' I0 _- E( F1 j5 n7 m
Bit rate : 256 kb/s# n( {$ }# {! F2 I
Channel(s) : 6 channels
$ o9 A* f6 c/ y6 `/ @" ^! `: l, QChannel layout : L R C LFE Ls Rs3 L! G: z4 f' J( {! o% u( U
Sampling rate : 48.0 kHz: i  u$ z$ C$ Q
Frame rate : 31.250 FPS (1536 SPF)
" x0 O: `* W, ]+ kCompression mode : Lossy' }4 [$ \# y9 o3 p
Stream size : 175 MiB (1%)" P, l; R) U, k  ^
Title : DDP 5.1
, _) I+ w9 L) C; w) g5 LLanguage : English& c" V8 K' o: R
Service kind : Complete Main
! g  G6 T+ M8 t( _3 DDefault : No
+ O/ I$ O( b* m5 iForced : No
5 z+ u' \" r5 l$ S% C8 [2 _  I( Q  V, c2 R& I8 l

- K+ {# l2 ^! W$ M6 n  Q+ _Text #1
+ ~& ~2 d0 K* D& WID : 4# R9 `- V9 [/ d, A+ ?4 \
Format : UTF-8& k$ D' ~4 }5 k9 z4 B4 k
Codec ID : S_TEXT/UTF8( D0 R& ^2 R2 P# p4 e" G
Codec ID/Info : UTF-8 Plain Text4 ^3 B8 B7 i8 K. }
Duration : 1 h 33 min, H( C2 Z% ^9 U2 Z/ _& l
Bit rate : 47 b/s2 y* D; @- B2 _% _6 F& F" X
Count of elements : 1131
9 E$ y- ]7 v9 l5 ~+ H) _Stream size : 32.7 KiB (0%)
3 d* q1 n% o/ O4 M, S! t# F5 VLanguage : English
* j: S5 l2 T; D+ c8 ~Default : Yes
" u" i& {! T5 g& mForced : No

9 X. @' U0 N3 r$ d( {
& I; J/ Y% u; n# |& Y* D' b4 Z( N
蓝光高清网提示您  点击下方附件名称  马上开始下载
* x: W# G7 h: U9 Q+ x9 E2 g6 s- y4 I0 V4 K8 u: x, o3 r% a5 D

5 ^/ Y- I0 b2 t" w; Y0 z8 J. J爆血新婚夜(港) / 弑婚游戏(台)/准备好了没4k Ready.Or.Not.2019.2160p.WEB-DL.x265.8bit.SDR.DTS-HD.MA.5.1.电影下载
2 s3 o& Z) f: p; O1 z" e0 a
5 ^$ ^$ b% m- b- @$ T
准备好了没4k Ready.Or.Not.2019.2160p.WEB-DL.x265.8bit.SDR.DTS-HD.MA.5.1【13.22 GB】
, F' l- y$ L1 P+ B 准备好了没4k Ready.Or.Not.2019.2160p.WEB-DL.x265.8bit.SDR.DTS-HD.MA.5.1-S.torrent (文件大小:66.67 KB)

/ C$ W" M2 }2 R
! R, r% p1 l. `. i. C/ F
准备好了没中文字幕下载
5 G6 J) S1 O+ A) I

( V5 x. W, S7 N6 ]1 F% F: t 准备好了没 Ready.or.Not.2019.1080p.BluRay.x264.DTS-HD.MA.5.1-CHD.srt (文件大小:80.13 KB)
1 m& }% @! U7 D. M( q

2 v- t0 {  V1 C
加入蓝光高清网VIP会员  无限制下载本站所有资源---点这里

资源下载、资源播放、字幕使用、无法下载等常见问题---点这里
回复

使用道具 举报

精彩评论1

gdlmxia 发表于 2021-3-1 12:50:13 | 显示全部楼层
太好啦&萬分感謝版主的無私發佈分享%
回复 支持 反对

使用道具 举报

您需要登录后才可以回帖 登录 | 立即注册

本版积分规则

烧友之家(蓝光高清网)本站内容部分由用户自主分享和转载自互联网,转载目的在于传递更多信息,并不代表本网赞同其观点和对其真实性负责。 如有侵权、违反国家法律政策行为,请联系我们,我们会第一时间及时清除和处理!
蓝光高清网 综合资讯平台
关注我们
  • 官方微信公众号
  • 扫码下载官方APP

X3.4 Licensed© 2001-2013 蓝光高清网 烧友之家APP |网站地图