游客您好
第三方账号登陆
  • 点击联系客服

    在线时间:9:00-18:00

    客服QQ

    1371333023

    电子邮件

    lanniao@1080pro.net
  • 烧友之家APP

    随时掌握烧友资讯

  • 扫描二维码

    关注微信公众号

推荐阅读
蓝鸟
未知星球 | 未知职业
  • 关注0
  • 粉丝2
  • 帖子93845
热议话题
精选帖子
开启左侧

[4K高清美剧] 佐伊的超凡歌单 第二季4k Zoeys.Extraordinary.Playlist.S02E01.2160p.美剧下载—4.45 GB

[复制链接]
蓝鸟 发表于 2021-3-15 11:12:08 | 显示全部楼层 |阅读模式 打印 上一主题 下一主题
佐伊的超凡歌单

状态:第二季(完结)
上映时间:2021-01-05
类型:音乐 
地区:美国
导演:简·利维
主演:
画质标准:4K(3840x2160) 封装音轨:MKV 音轨编码:其他DD
豆瓣评分:8.0分

加入蓝光高清网,轻松下载最新4k资源

您需要 登录 才可以下载或查看,没有帐号?立即注册

x
影片参数
佐伊的读心歌单/佐伊的超凡歌单 第二季4k Zoeys.Extraordinary.Playlist.S02E01.2160p.WEB.h265美剧信息
Video
ID : 1
Format : HEVC
Format/Info : High Efficiency Video Coding
Format profile : Main@L5@High
Codec ID : V_MPEGH/ISO/HEVC
Duration : 42 min 52 s
Bit rate : 14.4 Mb/s
Width : 3 840 pixels
Height : 2 160 pixels
Display aspect ratio : 16:9
Frame rate mode : Constant
Frame rate : 23.976 (24000/1001) FPS
Color space : YUV
Chroma subsampling : 4:2:0
Bit depth : 8 bits
Bits/(Pixel*Frame) : 0.073
Stream size : 4.32 GiB (97%)
Language : English
Default : Yes
Forced : No
Color range : Limited
Color primaries : BT.709
Transfer characteristics : BT.709
Matrix coefficients : BT.709


Audio
ID : 2
Format : AAC LC
Format/Info : Advanced Audio Codec Low Complexity
Codec ID : A_AAC-2
Duration : 42 min 52 s
Bit rate : 445 kb/s
Channel(s) : 6 channels
Channel layout : C L R Ls Rs LFE
Sampling rate : 48.0 kHz
Frame rate : 46.875 FPS (1024 SPF)
Compression mode : Lossy
Stream size : 137 MiB (3%)
Language : English
Default : Yes
Forced : No


Text
ID : 3
Format : UTF-8
Codec ID : S_TEXT/UTF8
Codec ID/Info : UTF-8 Plain Text
Duration : 42 min 22 s
Bit rate : 95 b/s
Count of elements : 1019
Stream size : 29.7 KiB (0%)
Title : English [SDH]
Language : English
Default : No
Forced : No



蓝光高清网提示您  点击下方附件名称  马上开始下载


佐伊的读心歌单/佐伊的超凡歌单 第二季4k Zoeys.Extraordinary.Playlist.S02E01.2160p.WEB.h265美剧下载


佐伊的超凡歌单 第二季4k Zoeys.Extraordinary.Playlist.S02E01.2160p.WEB.h265【4.45 GB】
佐伊的超凡歌单 第二季4k Zoeys.Extraordinary.Playlist.S02E01.2160p.WEB.h26.torrent (文件大小:45.07 KB)
加入蓝光高清网VIP会员  无限制下载本站所有资源---点这里

资源下载、资源播放、字幕使用、无法下载等常见问题---点这里
回复

使用道具 举报

精彩评论6

feiyue 发表于 2021-3-15 13:59:43 | 显示全部楼层
天天打卡!
回复

使用道具 举报

gdlmxia 发表于 2021-3-16 09:13:11 | 显示全部楼层
太好啦&萬分感謝版主的無私發佈分享%
回复 支持 反对

使用道具 举报

LAJISE 发表于 2021-3-16 09:49:50 | 显示全部楼层
很好的资源
回复 支持 反对

使用道具 举报

ggang1 发表于 2021-3-16 10:08:52 | 显示全部楼层
谢楼主分享
回复 支持 反对

使用道具 举报

發現 发表于 2021-3-19 16:00:54 | 显示全部楼层

谢谢分享
回复

使用道具 举报

xo555手机认证 发表于 4 天前 | 显示全部楼层

论坛有你更精彩……
回复 支持 反对

使用道具 举报

您需要登录后才可以回帖 登录 | 立即注册

本版积分规则

烧友之家(蓝光高清网)本站内容部分由用户自主分享和转载自互联网,转载目的在于传递更多信息,并不代表本网赞同其观点和对其真实性负责。 如有侵权、违反国家法律政策行为,请联系我们,我们会第一时间及时清除和处理!
蓝光高清网 综合资讯平台
关注我们
  • 官方微信公众号
  • 扫码下载官方APP

X3.4 Licensed© 2001-2013 蓝光高清网 烧友之家APP |网站地图