游客您好
第三方账号登陆
  • 点击联系客服

    在线时间:9:00-18:00

    客服QQ

    1371333023

    电子邮件

    lanniao@1080pro.net
  • 烧友之家APP

    随时掌握烧友资讯

  • 扫描二维码

    关注微信公众号

推荐阅读
蓝鸟
未知星球 | 未知职业
  • 关注0
  • 粉丝2
  • 帖子93845
热议话题
精选帖子
开启左侧

[4K高清美剧] 为全人类 第二季4k For.All.Mankind.S02E01.2160p.ATVP.WEB-DL.DDP5.1.Atmos.DV.x265美剧下载—9.56 GB

[复制链接]
蓝鸟 发表于 2021-3-15 11:22:46 | 显示全部楼层 |阅读模式 打印 上一主题 下一主题
为全人类

状态:第二季(完结)
上映时间:2021-02-19
类型:科幻 
地区:美国
导演:迈克尔·莫里斯
主演:乔尔·金纳曼 / 迈克尔·多曼 / 乔迪·巴尔弗 / 莎拉·琼斯 / 珊特尔·范圣滕
画质标准:4K(3840x2160) 封装音轨:MKV 音轨编码:其他DD
豆瓣评分:8.6分

加入蓝光高清网,轻松下载最新4k资源

您需要 登录 才可以下载或查看,没有帐号?立即注册

x
影片参数
为了全人类 / 太空骄子(港) / 太空使命(台)/为全人类 第二季4k For.All.Mankind.S02E01.2160p.ATVP.WEB-DL.DDP5.1.Atmos.DV.x265美剧信息
Video
ID : 1
Format : HEVC
Format/Info : High Efficiency Video Coding
Format profile : Main 10@L5@High
HDR format : Dolby Vision, Version 1.0, dvhe.05.06, BL+RPU
Codec ID : dvhe
Codec ID/Info : High Efficiency Video Coding with Dolby Vision
Duration : 56 min 9 s
Bit rate : 24.4 Mb/s
Width : 3 840 pixels
Height : 1 920 pixels
Display aspect ratio : 2.000
Frame rate mode : Constant
Frame rate : 23.976 (24000/1001) FPS
Color space : YUV
Chroma subsampling : 4:2:0
Bit depth : 10 bits
Bits/(Pixel*Frame) : 0.138
Stream size : 9.56 GiB (97%)
Default : Yes
Alternate group : 1
Codec configuration box : hvcC+dvcC


Audio
ID : 2
Format : E-AC-3 JOC
Format/Info : Enhanced AC-3 with Joint Object Coding
Commercial name : Dolby Digital Plus with Dolby Atmos
Codec ID : ec-3
Duration : 56 min 9 s
Bit rate mode : Constant
Bit rate : 768 kb/s
Maximum bit rate : 811 kb/s
Channel(s) : 6 channels
Channel layout : L R C LFE Ls Rs
Sampling rate : 48.0 kHz
Frame rate : 31.250 FPS (1536 SPF)
Compression mode : Lossy
Stream size : 308 MiB (3%)
Language : English
Service kind : Complete Main
Default : Yes
Alternate group : 2
Complexity index : Not present / 16
Number of dynamic objects : 15
Bed channel count : 1 channel
Bed channel configuration : LFE


蓝光高清网提示您  点击下方附件名称  马上开始下载


为了全人类 / 太空骄子(港) / 太空使命(台)/为全人类 第二季4k For.All.Mankind.S02E01.2160p.ATVP.WEB-DL.DDP5.1.Atmos.DV.x265美剧下载


为全人类 第二季4k For.All.Mankind.S02E02.2160p.ATVP.WEB-DL.DDP5.1.Atmos.DV.x265【9.87 GB】
为全人类 第二季4k For.All.Mankind.S02E02.2160p.ATVP.WEB-DL.DDP5.1.Atmos.D.torrent (文件大小:49.93 KB)
加入蓝光高清网VIP会员  无限制下载本站所有资源---点这里

资源下载、资源播放、字幕使用、无法下载等常见问题---点这里
回复

使用道具 举报

精彩评论7

gdlmxia 发表于 2021-3-15 13:09:25 | 显示全部楼层
太好啦&萬分感謝版主的無私發佈分享%
回复 支持 反对

使用道具 举报

LAJISE 发表于 2021-3-16 09:29:59 | 显示全部楼层
感谢楼主!!
回复

使用道具 举报

ggang1 发表于 2021-3-16 10:07:15 | 显示全部楼层
谢楼主分享
回复 支持 反对

使用道具 举报

Takeri手机认证 发表于 2021-4-2 03:49:58 | 显示全部楼层
感谢楼主!
回复

使用道具 举报

元一手机认证 发表于 2021-4-3 14:42:41 | 显示全部楼层
感谢楼主!!
回复

使用道具 举报

阳光wuyi手机认证 发表于 2021-4-6 10:30:00 | 显示全部楼层
感谢楼主!!支持蓝光高清
回复 支持 反对

使用道具 举报

xo555手机认证 发表于 5 天前 | 显示全部楼层

感谢分享!!!!
回复

使用道具 举报

您需要登录后才可以回帖 登录 | 立即注册

本版积分规则

烧友之家(蓝光高清网)本站内容部分由用户自主分享和转载自互联网,转载目的在于传递更多信息,并不代表本网赞同其观点和对其真实性负责。 如有侵权、违反国家法律政策行为,请联系我们,我们会第一时间及时清除和处理!
蓝光高清网 综合资讯平台
关注我们
  • 官方微信公众号
  • 扫码下载官方APP

X3.4 Licensed© 2001-2013 蓝光高清网 烧友之家APP |网站地图