蓝光高清网

开启左侧

困在时间里的父亲 4K.The.Father.2020.2160p.AMZN.WEB-DL.x265.10bit.HDR10Plus.DDP5.1-4k电影下载

  [复制链接]

2022-1-14 19:00:27 33694 4

蓝鸟 发表于 2021-3-27 13:16:22 |阅读模式

蓝鸟 楼主

2021-3-27 13:16:22

困在时间里的父亲
上映时间:2020年
类型:剧情 
地区:英国 法国 
导演:佛罗莱恩·泽勒
主演:奥利维娅·科尔曼 / 安东尼·霍普金斯 / 马克·加蒂斯 / 奥莉维亚·威廉姆斯 / 伊莫琴·普茨
画质标准:4K HDR  封装音轨:Dolby TrueHD 5.1 Dolby Atmos 
豆瓣评分:8.5分
简       介
" I4 I( Q6 X+ ~" x9 S; A' E" }0 {; i! a* S5 e
  安东尼·霍普金斯、奥利维娅·科尔曼将出演,根据法国小说家兼剧作家佛罗莱恩·泽勒的舞台剧《父亲》改编的新片。霍普金斯饰演的角色是一个淘气而又高度独立的男人,随着年龄的增长,他拒绝了女儿安妮(科尔曼饰)的一切帮助。然而,在安妮决定和她的伴侣搬去巴黎后,这种帮助变得至关重要。父亲面对不断变化的环境时,他开始怀疑他所爱的人,他自己的思想,甚至他的现实结构。
7 q' M& M9 R: ^! i* M  泽勒将执导本片,并与奥斯卡获奖编剧克里斯托弗·汉普顿([危险方法])合写剧本。该片将于本月在英国开拍。影片的制片人有大卫·帕菲特([莎翁情史])、让-路易·利维([唇语惊魂])、菲利普·卡卡松([时尚先锋香奈儿])等。
8 e& O2 }1 u: T3 l$ b  这部由泽勒编剧和执导的舞台剧于2012年首次在巴黎上映,赢得了莫里哀奖的最佳舞台剧奖。之后该剧在纽约百老汇和伦敦西区上演,又同时拿下了托尼奖和奥利维尔奖的最佳男演员奖。
9 u/ X2 k: n8 L& v( O, c0 g/ N+ h
% q3 Y& A/ F$ _4 [! O, x  i& \

5 n/ x# R$ v# j% [1 S( z3 _& v影片参数! D  ]# o+ M/ Z( L# j3 s
爸爸可否不要老(港) / 父亲 / 老父/困在时间里的父亲4K.The.Father.2020.2160p.AMZN.WEB-DL.x265.10bit.HDR10Plus.DDP5.1-4k电影信息9 ]! E% K9 \" o4 y
Video
3 q) n, j& u9 o0 f% j+ ?7 J( TID : 1
+ s0 V2 h+ ?- m1 v# J/ q* X# a1 vFormat : HEVC
% l; K" n4 ?$ L2 w6 l7 m! ^Format/Info : High Efficiency Video Coding8 C9 {- W; a- @* v1 a& p3 L
Format profile : Main 10@L5@Main) o7 d8 P# F& R3 A% B
HDR format : SMPTE ST 2094 App 4, Version 1, HDR10+ Profile B compatible
8 F5 [% L- b$ o+ b0 ]& U  DCodec ID : V_MPEGH/ISO/HEVC
  p/ T0 V" ?+ w7 XDuration : 1 h 36 min% a- D+ X( t# o2 ?
Bit rate : 14.6 Mb/s
  L6 @3 c- K' U+ V* NWidth : 3 840 pixels. I$ H( b- q6 `( [/ R
Height : 1 600 pixels
) Q! `8 O' q8 u3 N6 mDisplay aspect ratio : 2.40:1, j) O! y( A# q: n4 J; X
Frame rate mode : Constant& d+ a6 ~7 |; Q3 S8 k- k0 W
Frame rate : 23.976 (24000/1001) FPS8 k9 `2 a. X# u& e* I( I6 g
Color space : YUV
+ e$ D/ C( E5 O! h) Y) f' mChroma subsampling : 4:2:0
! S' A; l/ A% N- Y/ F: dBit depth : 10 bits
* c  ^7 q& E& h! b( x" \Bits/(Pixel*Frame) : 0.099
- J- u# N9 V6 Z5 u: b1 GStream size : 9.86 GiB (96%)
3 L/ T$ d" c& H9 z, R, ^8 w- A# bDefault : Yes
5 x3 W# K( A4 g/ ^( SForced : No4 b& g5 Y* C! t
Color range : Limited
, c( E4 h! D1 NColor primaries : BT.2020. z: G, F) v' ?3 q
Transfer characteristics : PQ
/ ^7 }( H- u6 d) pMatrix coefficients : BT.2020 non-constant
) ?! l& m" T/ [8 g! lMastering display color primaries : Display P3
' N. @: r+ k$ C. wMastering display luminance : min: 0.0050 cd/m2, max: 4000 cd/m20 l4 @9 w6 M: E2 J2 ~
Maximum Content Light Level : 474 cd/m2) i) J& |1 H# }# G& B
Maximum Frame-Average Light Level : 44 cd/m2
% m4 N/ A: g( k5 \8 A
$ R' c, h+ f* ?, G. A+ |4 l

! S# U$ T/ X5 |" F$ SAudio( a3 D) @1 |3 Y
ID : 28 F+ @9 }& d( Q" T# x% f6 f+ x
Format : E-AC-3
" K9 Y. y1 _* RFormat/Info : Enhanced AC-3
/ m: ?0 _. E( x3 s0 ^7 g  A8 E9 uCommercial name : Dolby Digital Plus
) [6 ]; O4 u7 Q& I/ e5 fCodec ID : A_EAC3% c$ i0 z6 p1 z% P* }+ }7 ?" Y! [
Duration : 1 h 36 min
. l" z* I; y5 d; l8 }& a$ j6 F) QBit rate mode : Constant
$ j: J- R) b; |% D' Z# T& BBit rate : 640 kb/s
# M; R; H+ r( bChannel(s) : 6 channels
! \* s* w) v6 K/ RChannel layout : L R C LFE Ls Rs
' ?' w5 l5 ~: R1 }0 B6 G8 USampling rate : 48.0 kHz
( @' \  D' u9 c9 k5 z. uFrame rate : 31.250 FPS (1536 SPF)
! i, O* Z, a: LCompression mode : Lossy$ Z9 a) s* ]3 Q& y2 T  V
Stream size : 444 MiB (4%)
% q0 s& o4 r1 @" ^2 VTitle : English# _1 Q3 c7 ?, J2 r; `, o
Language : English
8 D+ f, C7 j$ X/ M! zService kind : Complete Main* H" x* b9 q3 G* i; R7 p
Default : No
& y3 [* ?, o3 ?% X3 ~Forced : No& r" s& W1 y) o) T9 I$ i) E1 _

  X. {: I- M% K: @( ?% e1 P
3 C6 t, B* S7 Z
Text #1
- G, ?& c' u+ m) @ID : 3; ^- T6 O8 }4 M3 B' ?
Format : UTF-87 I+ v6 t$ j/ c
Codec ID : S_TEXT/UTF8
0 C1 V8 t1 s- q+ ^( _Codec ID/Info : UTF-8 Plain Text
6 A) P& g$ j' L& FDuration : 1 h 32 min
9 u( s" z6 ^2 t6 vBit rate : 58 b/s$ o' ?$ t8 z2 {" B
Count of elements : 14670 t5 o! g) u& S& T2 d. Y
Stream size : 39.7 KiB (0%), k0 @4 {& U* i( [+ p  q
Title : English [SDH]' }+ x: D) T2 D, T# m
Language : English; }" V' G  Q+ b! h# P- D0 ]
Default : No
8 i  c! R# K$ S1 _' }3 M1 sForced : No
8 [) w4 J/ x8 f! h& Y
8 o0 }/ N& g5 q0 `

( z4 ^8 ^6 n3 e5 u  O. kText #2/ d/ E( I' ]; o; E. W
ID : 4- D, C( T+ k2 p* n* H
Format : UTF-8$ q: {8 h/ c& |9 w- {# ?' t
Codec ID : S_TEXT/UTF87 S! l0 u/ b: t8 x$ F6 o
Codec ID/Info : UTF-8 Plain Text0 z( W# h8 ^6 m7 N9 s
Duration : 1 h 29 min( y0 I7 M: N+ h4 g/ r! U3 y+ ]0 k
Bit rate : 56 b/s" N! \, S$ J  \
Count of elements : 1303
. |& H; {; T. D$ m* gStream size : 36.8 KiB (0%)
' I- I9 W+ ^: Z' WTitle : English. Y# @$ A5 y* {/ M3 E5 A9 O( V9 j
Language : English
5 V& c- ]( i  k# i7 r( M1 a' J& Y$ WDefault : No5 D+ j3 I9 n3 d- {% x; l
Forced : No
) e0 d) w. ]- Y) F$ i3 m$ U
蓝光高清网提示您  点击下方附件名即可开始下载
% k. l0 B" G" g5 h9 ]' {( f+ F; a
( E' e4 F' E6 l9 Q) K" ?
爸爸可否不要老(港) / 父亲 / 老父/困在时间里的父亲4K.The.Father.2020.2160p.AMZN.WEB-DL.x265.10bit.HDR10Plus.DDP5.1-4K电影下载
) W) s* Q! h' l8 ~' v$ M1 `, t1 i7 t% M* W6 D  c0 W& R- m4 n5 C& ^
困在时间里的父亲4K.The.Father.2020.2160p.AMZN.WEB-DL.x265.10bit.HDR10Plus.DDP5.1【4K HDR 10.29 GB】
+ F1 ?3 i& C' U$ T/ `; l资源暂停下载······% Q/ Z( ^- {4 W& M4 L# V; w6 b

$ v( i* a( a, c( w' C- M6 A
加入蓝光高清网VIP会员  无限制下载本站所有资源---点这里

资源下载、资源播放、字幕使用、无法下载等常见问题---点这里
回复

使用道具 举报

全部回复4

Takeri手机认证 发表于 2021-3-31 17:56:20

Takeri 沙发

2021-3-31 17:56:20

谢谢分享!!!!!!!!
回复

使用道具 举报

冒的饭吃手机认证 发表于 2021-3-31 18:28:11

冒的饭吃 板凳

2021-3-31 18:28:11

谢谢分享 找了好久2 m/ y3 G6 s) |2 _# X: e
回复 支持 反对

使用道具 举报

徐小贱手机认证 发表于 2021-6-1 17:47:15 来自手机

徐小贱 地板

2021-6-1 17:47:15

下载暂停了?!
回复 支持 反对

使用道具 举报

再会未来 发表于 2022-1-14 19:00:27

再会未来 5#

2022-1-14 19:00:27

谢谢分享
回复

使用道具 举报

发表回复

您需要登录后才可以回帖 登录 | 立即注册

返回列表 本版积分规则

  • 发帖

  • 在线客服

  • 微信

  • 客户端

  • 返回顶部