游客您好
第三方账号登陆
  • 点击联系客服

    在线时间:9:00-18:00

    客服QQ

    1371333023

    电子邮件

    lanniao@1080pro.net
  • 烧友之家APP

    随时掌握烧友资讯

  • 扫描二维码

    关注微信公众号

推荐阅读
蓝鸟
未知星球 | 未知职业
  • 关注0
  • 粉丝2
  • 帖子93845
精选帖子
开启左侧

金刚大战哥斯拉 Godzilla.vs.Kong.2021.2160p.HMAX.WEB-DL.x265.10bit.HDR.DDP5.1.Atmos-14.76GB

  [复制链接]
蓝鸟 发表于 2021-3-31 17:25:29 | 显示全部楼层 |阅读模式 打印 上一主题 下一主题
金刚大战哥斯拉
上映时间:2021年
类型:动作 科幻 冒险 
地区:美国 
导演:亚当·温加德
主演:亚历山大·斯卡斯加德 / 米莉·波比·布朗 / 丽贝卡·豪尔 / 凯莉·霍特尔 / 布莱恩·泰里·亨利
画质标准:4K HDR  封装音轨:Dolby TrueHD 5.1 Dolby Atmos 
豆瓣评分:6.7分

加入蓝光高清网,轻松下载最新4k资源

您需要 登录 才可以下载或查看,没有帐号?立即注册

x
简       介
! @0 u; J2 H) h( t& `& ^7 [
2 N8 r% M$ @6 o$ ~  这两位宛如神衹一般强大的对手于一场壮观的战争中相遇,彼时世界命运正悬于一线。为了找到真正的家园,金刚与他的保护者们踏上了一次艰难的旅程。与他们一道前行的还有一个年轻的孤儿女孩——吉雅,这个女孩与金刚之间存在着一种独特而强大的紧密联系。但意想不到的是,他们在前行的航道上与愤怒的哥斯拉狭路相逢,也由此在全球引起了一系列破坏。一股无形的力量造成了这两只巨兽之间的巨大冲突,深藏在地心深处的奥秘也由此揭开。# y/ f8 v  b$ \# v/ x

3 u% b) C$ g8 Q- m
) f5 [0 d0 Z  r/ f9 z7 a
影片参数
金刚大战哥斯拉 / 哥吉拉大战金刚(台) / King Kong vs. Godzilla/哥斯拉大战金刚4k.Godzilla.vs.Kong.2021.2160p.HMAX.WEB-DL.x265.10bit.HDR.DDP5.1.Atmos-4k电影信息' }( a" n9 f$ L; @& j
Video
1 Q& @7 j9 m7 q  T( E& r" SID : 1( j2 J# |' A4 ~( w# k7 v7 U
Format : HEVC
/ T: w$ l9 T! WFormat/Info : High Efficiency Video Coding
# O% {4 s5 A) ]5 xFormat profile : Main 10@L5@Main
/ s3 k; L+ t, l5 UHDR format : SMPTE ST 2086, HDR10 compatible
2 l$ f; G6 B: }0 e, \Codec ID : V_MPEGH/ISO/HEVC% O* Q6 W7 t: t4 c" g
Duration : 1 h 53 min
4 {- ?: S5 n7 J( W' x  h! n$ OBit rate : 17.9 Mb/s! `/ A7 U1 M/ U' E+ H  C- E
Width : 3 840 pixels
! q0 e3 |$ a6 i, U3 ?9 ^Height : 2 160 pixels
9 J: q0 C+ m9 nDisplay aspect ratio : 16:9
2 x& V! w* _# MFrame rate mode : Constant
1 J0 {$ A* q, V4 h6 h0 t2 q8 ~Frame rate : 23.976 (24000/1001) FPS/ f* L2 U, N8 h0 u# ^
Color space : YUV9 R+ ?% c8 t  Z1 y
Chroma subsampling : 4:2:0
8 F( }4 u. M) v- h  b% LBit depth : 10 bits0 h# n5 t) ^3 g" j' T6 b
Bits/(Pixel*Frame) : 0.0906 M' ^- x: @! Z* O( N
Stream size : 14.2 GiB (96%)
: B: {" o+ A+ X1 l  y% j7 z$ AWriting library : x265 3.4hy:[Linux][GCC 7.5.0][64 bit] 10bit; p$ }7 Y  \$ a% \
Encoding settings : cpuid=1111039 / frame-threads=1 / wpp / no-pmode / no-pme / no-psnr / no-ssim / log-level=2 / input-csp=1 / input-res=3840x2160 / interlace=0 / total-frames=0 / level-idc=0 / high-tier=1 / uhd-bd=0 / ref=4 / no-allow-non-conformance / repeat-headers / annexb / no-aud / no-hrd / info / hash=0 / no-temporal-layers / no-open-gop / min-keyint=96 / keyint=96 / gop-lookahead=0 / bframes=3 / b-adapt=2 / b-pyramid / bframe-bias=0 / rc-lookahead=25 / lookahead-slices=4 / scenecut=40 / hist-scenecut=0 / radl=0 / no-splice / no-intra-refresh / ctu=64 / min-cu-size=8 / rect / no-amp / max-tu-size=32 / tu-inter-depth=1 / tu-intra-depth=1 / limit-tu=0 / rdoq-level=2 / dynamic-rd=0.00 / no-ssim-rd / signhide / no-tskip / nr-intra=0 / nr-inter=0 / no-constrained-intra / strong-intra-smoothing / max-merge=3 / limit-refs=3 / limit-modes / me=3 / subme=3 / merange=57 / temporal-mvp / no-frame-dup / no-hme / weightp / no-weightb / no-analyze-src-pics / deblock=0:0 / sao / no-sao-non-deblock / rd=4 / selective-sao=4 / no-early-skip / rskip / no-fast-intra / no-tskip-fast / no-cu-lossless / no-b-intra / no-splitrd-skip / rdpenalty=0 / psy-rd=2.00 / psy-rdoq=1.00 / no-rd-refine / no-lossless / cbqpoffs=0 / crqpoffs=0 / rc=abr / bitrate=18000 / qcomp=0.60 / qpstep=4 / stats-write=0 / stats-read=2 / cplxblur=20.0 / qblur=0.5 / vbv-maxrate=24500 / vbv-bufsize=24500 / vbv-init=0.6 / vbv-end=0.6 / vbv-end-fr-adj=0.0 / ipratio=1.40 / pbratio=1.30 / aq-mode=2 / aq-strength=1.00 / cutree / zone-count=0 / no-strict-cbr / qg-size=32 / no-rc-grain / qpmax=69 / qpmin=0 / no-const-vbv / sar=0 / overscan=0 / videoformat=5 / range=0 / colorprim=9 / transfer=16 / colormatrix=9 / chromaloc=0 / display-window=0 / master-display=G(13250,34500)B(7500,3000)R(34000,16000)WP(15635,16450)L(10000000,1) / cll=598,273 / min-luma=0 / max-luma=1023 / log2-max-poc-lsb=8 / vui-timing-info / vui-hrd-info / no-concatenation / slices=1 / no-opt-qp-pps / no-opt-ref-list-length-pps / no-multi-pass-opt-rps / scenecut-bias=0.05 / hist-threshold=0.01 / no-opt-cu-delta-qp / no-aq-motion / hdr10 / no-hdr10-opt / no-dhdr10-opt / no-idr-recovery-sei / analysis-reuse-level=0 / analysis-save-reuse-level=0 / analysis-load-reuse-level=0 / scale-factor=0 / refine-intra=0 / refine-inter=0 / refine-mv=1 / refine-ctu-distortion=0 / no-limit-sao / ctu-info=0 / no-lowpass-dct / refine-analysis-type=0 / copy-pic=1 / max-ausize-factor=1.0 / no-dynamic-refine / no-single-sei / no-hevc-aq / no-svt / no-field / qp-adaptation-range=1.00 / no-scenecut-aware-qpconformance-window-offsets / right=0 / bottom=0 / decoder-max-rate=0
5 J/ n4 F# n* O3 HDefault : Yes9 r( K$ o& \& G
Forced : No
8 L9 ^$ l; `9 h$ |" U( aColor range : Limited
  g- M* N4 l# |& f3 s$ o* o& T: C( x2 {Color primaries : BT.2020
9 I* Q& }9 p8 b. f# ZTransfer characteristics : PQ
0 ~0 a( X( j! k, BMatrix coefficients : BT.2020 non-constant$ t3 i" i: a+ @  y
Mastering display color primaries : Display P3
& W8 L9 c% Y( ~3 _6 c- c) t+ qMastering display luminance : min: 0.0001 cd/m2, max: 1000 cd/m26 c0 {) ~5 t. o, D6 ^- d
Maximum Content Light Level : 598 cd/m2
  L. S+ f7 K# D& u3 aMaximum Frame-Average Light Level : 273 cd/m28 x1 G. T- A, L! K
! `' ^" N3 \# M8 ]

" M6 _* x8 r7 WAudio8 e* p# y& ^- Q9 U- b( {2 T
ID : 2# ^9 q: D- e5 G7 H
Format : E-AC-3 JOC
! ?: H  Q0 c; k) D9 iFormat/Info : Enhanced AC-3 with Joint Object Coding: s0 T) h) O  _
Commercial name : Dolby Digital Plus with Dolby Atmos+ H6 g; U4 r/ @  E' H! k5 U' f
Codec ID : A_EAC3" M$ c  k  @' s4 ^& P
Duration : 1 h 53 min1 e5 \/ k: S. r. f! N8 I
Bit rate mode : Constant+ G0 {; P) }- j# [6 S% _
Bit rate : 768 kb/s) `1 v& h6 C* [9 ^
Channel(s) : 6 channels3 ]4 i% M0 P1 v$ W3 \
Channel layout : L R C LFE Ls Rs
9 M. C7 c0 `( i$ W5 P3 @2 USampling rate : 48.0 kHz% {1 n; k: B$ ^" i5 K2 R% z
Frame rate : 31.250 FPS (1536 SPF)* {5 E% Y3 Y) U- L3 p+ E! Z
Compression mode : Lossy: c- W0 l5 o/ D
Stream size : 622 MiB (4%)
+ f4 j8 t9 W- |& U7 DTitle : DDP 5.1 Atmos4 g8 H, c& j' _  S
Language : English
4 l5 Y  r% Q# D( ZService kind : Complete Main
3 u9 W; q4 Q' Q4 Q) d" ~& p: LDefault : Yes1 ~1 }/ j- z* Y2 y. Y& o
Forced : No
* U* [' E6 c" v! V+ Y* Q* OComplexity index : 16
, [- i- \6 @& y  J4 I5 |Number of dynamic objects : 15
8 S, j3 O9 d  ~: [/ J) a3 \Bed channel count : 1 channel
* C1 a# P8 d" D9 R2 ^$ a% dBed channel configuration : LFE/ }, I' R; A9 X+ I/ n' \
8 ~! L8 w) H1 }$ z) V
9 @- g1 Z  l" f$ X4 a  g0 v
Text
8 c3 |/ O+ q& BID : 3
8 l' e! e1 [+ B" ]; G9 ZFormat : UTF-8
: X" x& G& W' }: I/ pCodec ID : S_TEXT/UTF8' O  Q3 H3 O$ O9 A' m
Codec ID/Info : UTF-8 Plain Text
1 [1 h- D9 P  f; ^* vDuration : 1 h 45 min& c+ H7 W/ e% g7 \7 X
Bit rate : 48 b/s6 o) c" k- ?. {& Y
Count of elements : 1425
. E% V3 B4 ^( k: b: [Stream size : 37.5 KiB (0%)
8 L# J1 y0 _$ q, {Title : SDH6 i, `# z1 e! L" i5 C( a% y
Language : English3 M! E* Z, P2 \
Default : No: G* _2 r6 b3 g' z4 g
Forced : No! w1 J0 @" d: @8 v) T/ q

; a# j: R" i, o( T" ], ^1 w$ L% K' g" x2 u. A

) X3 Y# \  C2 B  `3 M1 T, I9 j5 s! y3 _
image.png : _3 G! S6 b+ D. F/ G
image.png
5 I+ c" }5 J8 p9 {% n+ o# ?/ W* @4 ^1 C
蓝光高清网提示您  点击下方附件名即可开始下载, i; [% M# _$ e- B) Z

$ x: j8 [4 u& |% |, W多版本下载时请注意区分
5 L0 Y& O6 \  }2 T
金刚大战哥斯拉 / 哥吉拉大战金刚(台) / King Kong vs. Godzilla/哥斯拉大战金刚4k.Godzilla.vs.Kong.2021.2160p.HMAX.WEB-DL.x265.10bit.HDR.DDP5.1.Atmos-4K电影下载

+ O% l9 G/ `2 F' E2 L1 ?+ R- M# a# v  N, }0 T
金刚大战哥斯拉 Godzilla.vs.Kong.2021.2160p.HMAX.WEB-DL.x265.10bit.HDR.DDP5.1.Atmos-14.76GB
8 ]. c3 N# o! I( V  B/ k- N5 L
游客,如果您要查看本帖隐藏内容请回复

" G9 J7 _5 e5 C' N# Z  `! w
( U! j4 [$ I$ C( D! o6 Q9 _- Z哥斯拉大战金刚4kGodzilla.vs.Kong.2021.HDR.2160p.WEB.H265-NAISU 【4K HDR 14.76 GB】
/ V' Q# s! E9 N( @+ y& W
游客,如果您要查看本帖隐藏内容请回复

1 Y6 z& y2 X  G( }+ O4 v& L
% ~6 P% ]. G. Z! P6 I; i& ]; e. t哥斯拉大战金刚4k.Godzilla.vs.Kong.2021.2160p.HMAX.WEB-DL.DDP5.1.Atmos.DV.x265-【4K 杜比视界 14.78 GB】
8 R0 C/ w8 c0 y  {1 Q! @
游客,如果您要查看本帖隐藏内容请回复
) \: C# r* a9 s( D" o) B6 ]

$ N0 E! M  }; F8 `5 F' ?- h0 Z金刚大战哥斯拉中文字幕下载: M8 g$ [: K+ c- ~3 Z3 o9 I2 C
哥斯拉大战金刚--双语.ass (文件大小:132.67 KB)
加入蓝光高清网VIP会员  无限制下载本站所有资源---点这里

资源下载、资源播放、字幕使用、无法下载等常见问题---点这里
回复

使用道具 举报

精彩评论270

陳1468手机认证 发表于 2021-3-31 17:35:42 | 显示全部楼层
牛逼牛逼牛逼牛逼牛逼牛逼牛逼2 g* E8 Z# m1 j# `2 p: m
回复 支持 反对

使用道具 举报

jackiettm手机认证 发表于 2021-3-31 17:35:51 | 显示全部楼层
牛B!!!!+ d# {2 R7 o& ?
回复

使用道具 举报

w5959j手机认证 发表于 2021-3-31 20:26:03 | 显示全部楼层
金刚大战哥斯拉
* R- n3 H+ r1 i5 d% k
回复 支持 反对

使用道具 举报

倾海手机认证 发表于 2021-3-31 20:28:51 | 显示全部楼层
这么牛逼吗
回复 支持 反对

使用道具 举报

寂寞い麦霸手机认证 发表于 2021-3-31 20:29:50 | 显示全部楼层
牛逼克里斯( Q; U! x5 Y* {) }% e! {% r
回复 支持 反对

使用道具 举报

随心所欲手机认证 发表于 2021-3-31 20:31:57 | 显示全部楼层
谢谢分享
! T% \7 @2 q8 Z% V( t! ]+ G
回复

使用道具 举报

唯爱网络(隐退手机认证 发表于 2021-3-31 21:13:38 | 显示全部楼层
33333333333333333: |3 C! n# j8 w& J) ?7 f4 L
回复 支持 反对

使用道具 举报

鲱鱼手机认证 发表于 2021-3-31 21:13:58 | 显示全部楼层
哦工资哦摩西我想问一下牛逼  r, W$ r# M  m* P: g

( I& a, ^' C# f4 `) p  C
回复 支持 反对

使用道具 举报

Solo手机认证 发表于 2021-3-31 21:28:04 | 显示全部楼层
看看下载什么* J0 N1 I3 K( O$ [+ x6 w5 v2 {4 X) A
回复 支持 反对

使用道具 举报

您需要登录后才可以回帖 登录 | 立即注册

本版积分规则

烧友之家(蓝光高清网)本站内容部分由用户自主分享和转载自互联网,转载目的在于传递更多信息,并不代表本网赞同其观点和对其真实性负责。 如有侵权、违反国家法律政策行为,请联系我们,我们会第一时间及时清除和处理!
蓝光高清网 综合资讯平台
关注我们
  • 官方微信公众号
  • 扫码下载官方APP

X3.4 Licensed© 2001-2013 蓝光高清网 烧友之家APP |网站地图