游客您好
第三方账号登陆
  • 点击联系客服

    在线时间:9:00-18:00

    客服QQ

    1371333023

    电子邮件

    lanniao@1080pro.net
  • 烧友之家APP

    随时掌握烧友资讯

  • 扫描二维码

    关注微信公众号

推荐阅读
蓝鸟
未知星球 | 未知职业
  • 关注0
  • 粉丝2
  • 帖子93845
精选帖子
开启左侧

恋恋初夏 4k.My.First.Summer.2020.2160p.WEB-DL.x265.8bit.SDR.DDP5.1-4k电影下载—8.29 GB

[复制链接]
蓝鸟 发表于 2021-4-1 10:00:54 | 显示全部楼层 |阅读模式 打印 上一主题 下一主题
恋恋初夏
上映时间:2020年
类型:剧情 
地区:其他 
导演:Katie Found
主演:马凯拉·卡维纳赫 / Harvey Zielinski / 埃德温娜·雷恩 / 斯蒂夫·莫察基斯 / 亚瑟·安吉尔
画质标准:4K SDR  封装音轨:Dolby TrueHD 5.1 
豆瓣评分:6.7分

加入蓝光高清网,轻松下载最新4k资源

您需要 登录 才可以下载或查看,没有帐号?立即注册

x
简       介
! R7 v0 f4 c0 Q& |$ c) |4 o% W- l; X. A3 z8 }& m
  16岁的Claudia在与世隔绝的环境中长大。母亲的离世令她被困在一处偏僻的房子里,当Grace像海市蜃楼一样出现在花园里,呼吸着新鲜的甜味空气时,她感到震惊。在与母亲共处的16年里,Claudia从未真正接触过外部世界,而除了母亲,也没有任何人知道她的存在。Claudia关于人际关系的理解充满了母亲带给她的负面影响,Grace让她克服了恐惧,渐渐卸下心防。6 |6 Z9 N% r) N2 r
  两人从彼此身上找到了所需要的支持、爱和亲密。
) F3 U+ Q! I; u  “心中太多伤痕,等不到私奔。
  c/ T; o. ?/ V" Q4 l' {  我要将你拯救,逃离人类荒谬,( v- z& {' c6 E+ _
  就用我的双手,带着你走,
' i* x  U4 x) t5 q  不挣扎,只紧扣。
* U" O9 ?, b. q; l( ~! `  从未低头,途经几百万伤口,
9 r; Z! R$ s2 T0 p7 S3 h  站在我的身后,
! r( d9 e' p5 b" Z' d  要确保你无愁没忧。” by 微博亿万同人字幕分享
! K  C, M# C, [/ d* B

, Z8 v0 _" G4 @) ^7 f1 o2 n3 v
" T: F  U6 Z6 g; Q( X
影片参数8 X* B* b6 U' R& T; y% H
夏日滋味/恋恋初夏4k.My.First.Summer.2020.2160p.WEB-DL.x265.8bit.SDR.DDP5.1-4k电影信息
4 K: m% U9 p  }5 V, R# U  s. K$ |  bVideo
: N. ]9 T; t6 z/ |; J# u, sID : 1
8 J0 W- x% j1 k3 r* b0 mFormat : HEVC3 @. {4 d( J5 [1 j
Format/Info : High Efficiency Video Coding
8 ~2 h% e" R! g3 w0 ]2 n8 cFormat profile : Main@L5@High; K7 ?& a3 \/ Z! q" s: X' {+ G) U
Codec ID : V_MPEGH/ISO/HEVC( _' h" ?' [; y4 [
Duration : 1 h 17 min) ]/ C+ P: d7 ^8 e/ \. R' t
Bit rate : 14.8 Mb/s" q, ?/ c* z5 T/ F# C
Width : 3 840 pixels
3 |* y5 X- n" J9 M- N5 t' BHeight : 2 160 pixels8 u3 I# y6 `( R
Display aspect ratio : 16:9: i# m1 t: @! o# w# w. s
Frame rate mode : Constant
! C3 W+ Z: X; }) b8 [0 dFrame rate : 24.000 FPS4 X6 J# [2 M$ m" `+ F% C" Q
Color space : YUV
  N. H" |$ f) o! Q5 J7 eChroma subsampling : 4:2:09 H* \- N% z1 Q1 o
Bit depth : 8 bits
( C) I6 R! x' T7 H8 F! m; i7 WBits/(Pixel*Frame) : 0.0755 H' e  Z+ R8 a) P  n
Stream size : 8.08 GiB (97%)
4 E( @% W8 @, k% l) P! J: m; UDefault : Yes
! U' S7 Y* O  E; h2 c4 c# FForced : No- Z) E9 t5 U5 \) y& F
Color range : Limited' ^1 }0 y6 X" N
Color primaries : BT.709
+ e  x/ ^( D7 @% ~, F4 o2 ]2 pTransfer characteristics : BT.709& _# M2 [; v, x* a% e
Matrix coefficients : BT.709! f2 {& i+ A# r( `" K; F( W
$ h. D8 v; n6 w6 B4 n

4 S) R5 `. p- o0 gAudio& I( S3 |9 |" |. ?, Z# Q5 i# Z2 n5 ?. y
ID : 2
2 o- m( W$ t# W9 o; t5 Q( GFormat : E-AC-3* _" R6 g3 ~* ?7 \' K
Format/Info : Enhanced AC-38 T; D8 Y, s) @3 S- x( o
Commercial name : Dolby Digital Plus
/ S) Z" r! ]7 f( O) \Codec ID : A_EAC3
8 A& l: P& i: Y# IDuration : 1 h 17 min
0 v- e- R, m# E- y# h5 r/ N/ BBit rate mode : Constant) n" X, Y4 e5 O* b6 v2 t5 q; ]
Bit rate : 384 kb/s
- ^7 z8 E* X7 [- _! r$ h8 g7 XChannel(s) : 6 channels
$ H6 q3 g" G- F# a4 }Channel layout : L R C LFE Ls Rs' z! I  ^" p+ |2 z! O
Sampling rate : 48.0 kHz+ u9 D* T3 H% ^
Frame rate : 31.250 FPS (1536 SPF)
7 t9 @8 S" V3 t/ Y/ v! QCompression mode : Lossy0 \' V* r% Z# }5 B* P0 {3 ]
Stream size : 214 MiB (3%)( y  G( |2 {+ ]1 K
Language : English. ^. f. R8 Z; A9 [1 f7 F2 D$ e
Service kind : Complete Main* h$ Z7 ?. E' ^0 ~+ h  L4 P
Default : Yes: R; ^9 S. C5 s1 ]
Forced : No
  K7 j# b+ n* H5 y
$ B* y' W# N4 q

2 n: K; T) Y$ W$ lText4 q# w: I; c( k" u) P/ {
ID : 3
( L6 I& ^1 Y6 l# i" V1 ?. HFormat : UTF-8, z: K4 M( P* S# E
Codec ID : S_TEXT/UTF8
/ R, d$ L/ c8 C  r2 qCodec ID/Info : UTF-8 Plain Text
+ t9 o1 `8 C* t" i. Z$ U! t8 g9 ODuration : 1 h 17 min
% `0 X$ M% P7 P7 c1 p4 ^" xBit rate : 34 b/s( u' f& O$ F4 q: Y  i- P; r
Count of elements : 812* H. o' b2 N: @( L# F
Stream size : 19.4 KiB (0%)
* D" R% w  Y! `4 B  R* LTitle : (SDH). ~7 K3 n5 ^) r+ d
Language : English, H  ~. P0 K# s9 a6 G0 m; U5 \, l" p
Default : No4 T) @6 q) [& H5 z; K
Forced : No
1 [  v; P' T% R& r: u, \
蓝光高清网提示您  点击下方附件名称  马上开始下载% U: D5 Z5 H0 @0 \3 u

/ l0 k9 m' z: x( G8 M: |, V% c* Y) |
$ i5 X- X+ Y5 T6 ?8 L3 @
夏日滋味/恋恋初夏4k.My.First.Summer.2020.2160p.WEB-DL.x265.8bit.SDR.DDP5.1-4K电影下载: X- P' R, ?+ S+ ^  @
. M8 T  g2 H7 O1 i" x+ a
恋恋初夏4k.My.First.Summer.2020.2160p.WEB-DL.x265.8bit.SDR.DDP5.1-【4K SDR 8.29 GB】
- R9 r, u' [8 x$ e4 U 恋恋初夏4K.My.First.Summer.2020.2160p.WEB-DL.x265.8bit.SDR.DDP5.1-ROCCaT.torrent (文件大小:42 KB)
加入蓝光高清网VIP会员  无限制下载本站所有资源---点这里

资源下载、资源播放、字幕使用、无法下载等常见问题---点这里
回复

使用道具 举报

您需要登录后才可以回帖 登录 | 立即注册

本版积分规则

烧友之家(蓝光高清网)本站内容部分由用户自主分享和转载自互联网,转载目的在于传递更多信息,并不代表本网赞同其观点和对其真实性负责。 如有侵权、违反国家法律政策行为,请联系我们,我们会第一时间及时清除和处理!
蓝光高清网 综合资讯平台
关注我们
  • 官方微信公众号
  • 扫码下载官方APP

X3.4 Licensed© 2001-2013 蓝光高清网 烧友之家APP |网站地图