游客您好
第三方账号登陆
  • 点击联系客服

    在线时间:9:00-18:00

    客服QQ

    1371333023

    电子邮件

    lanniao@1080pro.net
  • 烧友之家APP

    随时掌握烧友资讯

  • 扫描二维码

    关注微信公众号

推荐阅读
蓝鸟
未知星球 | 未知职业
  • 关注0
  • 粉丝2
  • 帖子93845
精选帖子
开启左侧

超级智能 4K.Superintelligence.2020.2160p.WEB-DL.x265.10bit.HDR10Plus.DDP5.1-4k电影下载—8.61 GB

[复制链接]
蓝鸟 发表于 2021-4-1 10:04:44 | 显示全部楼层 |阅读模式 打印 上一主题 下一主题
超级智能
上映时间:2020年
类型:喜剧 动作 
地区:美国 
导演:本·法尔科内
主演:梅丽莎·麦卡西 / 詹姆斯·柯登 / 鲍比·坎纳瓦尔 / 布莱恩·泰里·亨利 / 珍·斯马特
画质标准:4K HDR  封装音轨:Dolby TrueHD 5.1 
豆瓣评分:5.4分

加入蓝光高清网,轻松下载最新4k资源

您需要 登录 才可以下载或查看,没有帐号?立即注册

x
简       介# k& Z, P) u3 j! h3 j" s4 S

# C6 K  b) W, E& R  梅丽莎·麦卡西将主演动作喜剧《超级智能》(Super-Intelligence),麦卡西丈夫本·法尔科内执导,这是两人自《塔米的旅行》《老板》《派对主角》后第四次以演员-导演身份合作。麦卡西饰演前企业高管Carol Peters,当她被世界上第一个超级智能——一个可能掌控世界的人工智能选中作为观察目标后,她的生活发生翻天覆地的变化。Steve Mallory(《老板》)编写剧本,7月开拍,新线出品。7 A3 u  I8 A  E, ?; e( o3 D4 n2 E0 F
+ Y4 e6 K- [+ s
, R! Z+ p" [9 g6 }
影片参数" l  m  U, j6 J' O) E4 a
超级智能4K.Superintelligence.2020.2160p.WEB-DL.x265.10bit.HDR10Plus.DDP5.1-4k电影信息
$ K+ Z) g  i* C. w1 K8 P6 \! VVideo+ a  c5 Q! J, a. V
ID : 1
5 p4 Q2 _0 X  X, P2 j% CFormat : HEVC. N" ^4 s2 v  W9 ]
Format/Info : High Efficiency Video Coding
3 c4 ^) j) B4 W1 ~Format profile : Main 10@L5.1@Main( Q9 c: ~8 \6 O8 D3 z$ }/ D
HDR format : SMPTE ST 2094 App 4, Version 1, HDR10+ Profile B compatible: Y, P0 z# v! n2 y+ \
Codec ID : V_MPEGH/ISO/HEVC
8 {2 g8 s/ R# \Duration : 1 h 45 min  J. n, r, O: d7 D6 u7 ?
Bit rate : 11.4 Mb/s
4 w9 C* ~# O2 S7 W; N4 J7 j  zWidth : 3 840 pixels
, [+ r+ `2 j) o" l$ i7 sHeight : 2 160 pixels) i2 [4 T1 C2 J  [9 \0 k5 f
Display aspect ratio : 16:9
. D/ |$ M5 t  j2 hFrame rate mode : Constant
3 q+ Q% z% j; X2 {1 yFrame rate : 23.976 (23976/1000) FPS6 z- P( S9 E9 J; W' P5 S$ n
Color space : YUV
, e6 t2 y) \2 d4 c' z7 I" A# ~4 lChroma subsampling : 4:2:0
0 F! Y9 e" C2 {  R- \Bit depth : 10 bits
$ w$ ], b* v! ^) `$ UBits/(Pixel*Frame) : 0.0570 X9 ~0 e- p5 ~5 d9 }" H! S
Stream size : 8.42 GiB (98%)) f+ p  H2 Z& p3 R
Writing library : x265 3.4:[Linux][GCC 6.3.0][64 bit] 10bit: p0 ]9 c: S& Q( {
Encoding settings : cpuid=1111039 / frame-threads=3 / wpp / no-pmode / no-pme / no-psnr / no-ssim / log-level=2 / input-csp=1 / input-res=3840x2160 / interlace=0 / total-frames=0 / level-idc=51 / high-tier=1 / uhd-bd=0 / ref=4 / no-allow-non-conformance / repeat-headers / annexb / no-aud / no-hrd / info / hash=0 / no-temporal-layers / no-open-gop / min-keyint=24 / keyint=48 / gop-lookahead=0 / bframes=3 / b-adapt=0 / no-b-pyramid / bframe-bias=0 / rc-lookahead=15 / lookahead-slices=8 / scenecut=0 / radl=0 / no-splice / no-intra-refresh / ctu=64 / min-cu-size=8 / no-rect / no-amp / max-tu-size=32 / tu-inter-depth=1 / tu-intra-depth=1 / limit-tu=0 / rdoq-level=0 / dynamic-rd=0.00 / no-ssim-rd / signhide / no-tskip / nr-intra=0 / nr-inter=0 / no-constrained-intra / strong-intra-smoothing / max-merge=2 / limit-refs=3 / no-limit-modes / me=1 / subme=2 / merange=57 / temporal-mvp / weightp / no-weightb / no-analyze-src-pics / deblock=0:0 / sao / no-sao-non-deblock / rd=2 / no-early-skip / rskip / fast-intra / no-tskip-fast / no-cu-lossless / no-b-intra / no-splitrd-skip / rdpenalty=0 / psy-rd=2.00 / psy-rdoq=0.00 / no-rd-refine / no-lossless / cbqpoffs=0 / crqpoffs=0 / rc=cbr / bitrate=11440 / qcomp=0.60 / qpstep=4 / stats-write=0 / stats-read=0 / vbv-maxrate=11440 / vbv-bufsize=22440 / vbv-init=0.9 / ipratio=1.40 / pbratio=1.30 / aq-mode=2 / aq-strength=1.00 / cutree / zone-count=0 / no-strict-cbr / qg-size=32 / no-rc-grain / qpmax=69 / qpmin=0 / no-const-vbv / sar=1 / overscan=0 / videoformat=5 / range=0 / colorprim=9 / transfer=16 / colormatrix=9 / chromaloc=0 / display-window=0 / master-display=G(13250,34500)B(7500,3000)R(34000,16000)WP(15635,16450)L(40000000,50) / max-cll=829,93 / min-luma=0 / max-luma=1023 / log2-max-poc-lsb=8 / vui-timing-info / vui-hrd-info / slices=1 / no-opt-qp-pps / no-opt-ref-list-length-pps / no-multi-pass-opt-rps / scenecut-bias=0.05 / no-opt-cu-delta-qp / no-aq-motion / hdr / no-hdr-opt / no-dhdr10-opt / no-idr-recovery-sei / analysis-reuse-level=5 / scale-factor=0 / refine-intra=0 / refine-inter=0 / refine-mv=0 / refine-ctu-distortion=0 / no-limit-sao / ctu-info=0 / no-lowpass-dct / refine-analysis-type=0 / copy-pic=1 / max-ausize-factor=1.0 / no-dynamic-refine / no-single-sei / no-hevc-aq / qp-adaptation-range=1.00
! q# ]9 g7 I+ E- oDefault : Yes
7 I- z. \8 |6 f; f5 K9 bForced : No
" _* L3 R" ~* Y+ T4 M- yColor range : Limited. T$ F: ~- g( l4 ]( C6 ?
Color primaries : BT.2020" d+ e" F3 l. I
Transfer characteristics : PQ
7 @; `  @7 e. `6 t6 K, `- i  uMatrix coefficients : BT.2020 non-constant, M; g6 r0 v$ z, o# P2 b
Mastering display color primaries : Display P3
# x" g, |+ b% ^Mastering display luminance : min: 0.0050 cd/m2, max: 4000 cd/m2
9 Q0 w5 H! D: \Maximum Content Light Level : 829 cd/m2
& _3 j& b" @* VMaximum Frame-Average Light Level : 93 cd/m24 ?" G( S6 r- R7 Z; O, o
* D9 f% ]& @8 v7 u; a
% l% i6 b& Z9 K
Audio
2 ]  A; x0 r5 ?- k# g# [% IID : 2
' y/ h  M9 A& Z4 d" i$ E, |Format : E-AC-3
1 z# Q& a# z7 c2 s) n* E! u0 {Format/Info : Enhanced AC-3
4 z9 C8 E: x: F8 {Commercial name : Dolby Digital Plus
$ x4 U  @1 O# M8 ?* V/ B+ QCodec ID : A_EAC3
: r. q; ]* [& {: m' MDuration : 1 h 45 min
! d' R+ N; V1 l7 C8 [1 }Bit rate mode : Constant  U7 e; R- v' ^# _, t& E
Bit rate : 256 kb/s
* c* m$ x0 y5 K" g( O& pChannel(s) : 6 channels5 c# E2 k9 c$ W
Channel layout : L R C LFE Ls Rs/ `+ D; G- K2 N; z
Sampling rate : 48.0 kHz( A5 @6 F/ d7 v* m
Frame rate : 31.250 FPS (1536 SPF)% z  ]  |0 x/ [0 W
Compression mode : Lossy
! p  \3 }' p( y: N% c: NStream size : 194 MiB (2%)
2 \( i1 e1 {' f" x3 t5 ^Language : English
9 M  |, D4 U; }3 N$ j" PService kind : Complete Main# M# s5 g; e% x* g# W# T1 S
Default : Yes
% a- c, e2 d; `1 H0 X3 u) ~( DForced : No
) q& x9 R: c) {% m& f

+ X( t. x9 s5 L; V) q1 u& d( |3 K蓝光高清网提示您  点击下方附件名称  马上开始下载
9 W! L% Q( I# g7 L% q! F- X6 H) R" S% c# j4 K
4 G1 U. _: c; q" F8 p3 _  C4 G" }
多版本下载时请注意区分9 D$ t% J1 C- `  O& H# _# B
& ?0 g" ^# [  ~+ @" f; s6 r- a$ w8 y  D
+ D) y  L2 j, {7 c8 D% u" h
超级智能4K.Superintelligence.2020.2160p.WEB-DL.x265.10bit.HDR10Plus.DDP5.1-4K电影下载% n4 U' E7 j$ ]& |- k
- _; i0 B' s9 O% S8 a. ~$ t

5 x' e& |4 _1 T! W* K- y超级智能4K.Superintelligence.2020.2160p.WEB-DL.x265.10bit.HDR10Plus.DDP5.1【4K HDR 8.61】
; d# j# T1 i9 S' b' f 超级智能4K.Superintelligence.2020.2160p.WEB-DL.x265.10bit.HDR10Plus.DDP5..torrent (文件大小:43.61 KB)
加入蓝光高清网VIP会员  无限制下载本站所有资源---点这里

资源下载、资源播放、字幕使用、无法下载等常见问题---点这里
回复

使用道具 举报

您需要登录后才可以回帖 登录 | 立即注册

本版积分规则

烧友之家(蓝光高清网)本站内容部分由用户自主分享和转载自互联网,转载目的在于传递更多信息,并不代表本网赞同其观点和对其真实性负责。 如有侵权、违反国家法律政策行为,请联系我们,我们会第一时间及时清除和处理!
蓝光高清网 综合资讯平台
关注我们
  • 官方微信公众号
  • 扫码下载官方APP

X3.4 Licensed© 2001-2013 蓝光高清网 烧友之家APP |网站地图