游客您好
第三方账号登陆
  • 点击联系客服

    在线时间:9:00-18:00

    客服QQ

    1371333023

    电子邮件

    lanniao@1080pro.net
  • 烧友之家APP

    随时掌握烧友资讯

  • 扫描二维码

    关注微信公众号

推荐阅读
蓝鸟
未知星球 | 未知职业
  • 关注0
  • 粉丝2
  • 帖子93845
精选帖子
开启左侧

圣诞星 4K.The.Star.2017.2160p.AMZN.WEB-DL.x265.10bit.HDR10Plus.DTS-HD.MA.5.1-4k电影下载—10.77 GB

[复制链接]
蓝鸟 发表于 2021-4-1 10:07:45 | 显示全部楼层 |阅读模式 打印 上一主题 下一主题
圣诞星
上映时间:2017年
类型:喜剧 动画 冒险 
地区:美国 
导演:蒂莫西·锐科特
主演:史蒂文·元 / 科甘-迈克尔·凯 / 艾迪·布莱恩特 / 吉娜·罗德里格兹 / 扎克瑞·莱维
画质标准:4K HDR  封装音轨:DTS-HD.MA 5.1 
豆瓣评分:6.4分

加入蓝光高清网,轻松下载最新4k资源

您需要 登录 才可以下载或查看,没有帐号?立即注册

x
简       介# [8 ]9 T/ H& Q+ N0 F; A4 D
, o. `$ m. T0 E$ \% `
  “The Star”只是个工作代号,并不是这部影片的正式片名。该片原名《羔羊》(The Lamb),由奥斯卡提名动画短片《头朝下的生活》(Head Over Heels)导演蒂莫西·雷克阿特(Timothy Reckart)执导,以一头勇敢的小驴子和他的动物伙伴为主角,从他们的角度描述了耶稣降生的故事。以布偶电影而著称的吉姆·汉森公司(The Jim Henson Company)将和索尼动画一起制作本片。
2 u1 ^; N  s" P" r2 U) f6 \+ j( T6 x9 ~7 z/ ~
9 \# {) }- H9 M* K6 D
影片参数* k' X1 P3 N$ W! I  p) H$ z! l" t+ m
羔羊 / The Lamb/圣诞星4K.The.Star.2017.2160p.AMZN.WEB-DL.x265.10bit.HDR10Plus.DTS-HD.MA.5.1-4k电影信息" \* K) [  J  [6 U& ~$ U, Q
Video+ b3 m) U& e7 N8 P7 s& a
ID : 1
+ b6 J- I) n+ VFormat : HEVC  X* G/ {/ }% \
Format/Info : High Efficiency Video Coding! ]/ R1 O2 n6 H7 y1 b  v, W6 V2 \
Format profile : Main 10@L5@Main$ N. E  J: Y( |" R* ]2 x7 A
HDR format : SMPTE ST 2094 App 4, Version 1, HDR10+ Profile B compatible% R9 I$ D. x+ ]2 E+ H+ F& S% T
Codec ID : V_MPEGH/ISO/HEVC2 }# j4 _4 W8 k6 u* E' u
Duration : 1 h 26 min5 ^/ ^5 R  v; l1 Y
Bit rate : 14.9 Mb/s! B3 y1 y+ C4 c" L' T+ z
Width : 3 840 pixels/ D4 ^6 F$ f4 h- k7 J- I$ D& t
Height : 2 080 pixels
) S; Q! N5 L- J& c: Q& C9 \Display aspect ratio : 1.85:1
8 b: a( g# m- u: b% j& n. X) OFrame rate mode : Constant' ^* ]% Q+ I; Q) |
Frame rate : 23.976 (24000/1001) FPS- O8 ?* D, T" g
Color space : YUV' x+ z$ Y' Y/ O( C$ Y
Chroma subsampling : 4:2:0
; |& f6 V$ x- j5 k7 m, s; q; @Bit depth : 10 bits. ]" G4 M5 \; r2 t' ?3 V# p. `5 M
Bits/(Pixel*Frame) : 0.078% l3 ]6 I5 K4 D0 l
Stream size : 8.97 GiB (83%)
% z' Q5 J' `( I: w- ]8 RDefault : Yes
# I( k; ?( x% r. A% b- R" |% \Forced : No
% g9 H$ x8 Q2 zColor range : Limited
8 d$ g0 y2 h  S  X% x( j6 rColor primaries : BT.20201 \& e7 r- m7 n  F  a
Transfer characteristics : PQ
2 C$ s6 v1 u1 J' Z- tMatrix coefficients : BT.2020 non-constant. d% g1 X6 h5 s0 Q6 ~' H& }
Mastering display color primaries : Display P3/ s; x( s% K) }5 W" f6 w6 a
Mastering display luminance : min: 0.0050 cd/m2, max: 4000 cd/m2- N4 P& V/ _: o7 X; h
Maximum Content Light Level : 4000 cd/m2
1 E' Z3 Q* x* i9 t/ Z8 `& \Maximum Frame-Average Light Level : 870 cd/m2  M" B1 j3 ?* J9 J6 j& U
7 l7 t  b; V( P/ R1 z# j+ b9 Y

+ q4 r2 B6 z: n; C+ |& KAudio #1
$ V+ G1 w! V1 E( gID : 2
1 F, o- k5 H) ]: q. a! _9 h4 m8 [- mFormat : DTS XLL) a6 p4 ~- M; I. F- `7 I
Format/Info : Digital Theater Systems+ D" t8 L: L! [' F- I1 {/ j
Commercial name : DTS-HD Master Audio
- E" [" p9 O: J4 aCodec ID : A_DTS1 u4 n" Q8 a* _& q
Duration : 1 h 26 min
1 L6 F( k0 ?! O; a; ]Bit rate mode : Variable& r7 Y) t: b( J0 U
Bit rate : 2 229 kb/s
( h& c' p* u6 y3 C: r5 Q. GChannel(s) : 6 channels
. {7 c" r; T1 ^, zChannel layout : C L R Ls Rs LFE
6 b- I2 l( }# d# H7 q0 A$ NSampling rate : 48.0 kHz- }, y2 J4 ^7 {$ o) H
Frame rate : 93.750 FPS (512 SPF): \# N( L# Y, X) {: X9 e% e, d
Bit depth : 16 bits$ p3 l0 b9 A9 O1 j
Compression mode : Lossless
. [$ U( \5 z& \% kStream size : 1.34 GiB (12%)) ~7 v7 U. {# X
Title : DTS-HD MA 5.1( |) [: l! _3 I( F
Language : English. d* n; X1 W+ c8 u) _9 ~/ O
Default : Yes% G  Q! i) o+ L
Forced : No
+ \/ M: o, D$ J' O) m+ }: w& A: y7 s

+ t" g' ^8 z/ S/ ]0 gAudio #25 ]& {9 U0 @, F; E- X4 w
ID : 3( C3 q! i+ b' h9 E
Format : AC-3
  O' M5 a( `! k1 ~Format/Info : Audio Coding 30 J! c, i* k3 z
Commercial name : Dolby Digital
9 |3 `0 Z3 w1 A1 r# BCodec ID : A_AC3
" U. F* V0 J7 ]; \Duration : 1 h 26 min; ]9 ^+ {8 y& k9 g" F% g
Bit rate mode : Constant3 `9 a) m" l$ I% Y" l9 o3 h1 |& F& u
Bit rate : 640 kb/s' f) C0 D1 i9 M* {
Channel(s) : 6 channels
7 h* _0 r- a' ]3 zChannel layout : L R C LFE Ls Rs
" i; O4 M7 p) K7 f: L2 y( P% G  xSampling rate : 48.0 kHz
/ m6 y2 w4 |9 p) o& ?  ]Frame rate : 31.250 FPS (1536 SPF)
3 H( d4 _1 L' n6 P. CCompression mode : Lossy: S4 A" a' z3 L: }. I- ?  r
Stream size : 394 MiB (4%)& j+ A1 `- o( d& h/ I0 M
Title : DD 5.1
! t# j, m0 B7 c7 A8 `Language : English) L1 I& a  d2 J% D5 T, z
Service kind : Complete Main: O- f6 q5 ]" {  t" J+ p
Default : No
% ~$ h+ \/ D% Y' cForced : No

2 L) N/ n, K, N* s7 `* Y+ c2 c( _9 @! {
蓝光高清网提示您  点击下方附件名称  马上开始下载
6 q8 N0 j( q/ m1 Y
$ H' {  P7 g! ~! A' Y+ X- G1 M1 L

( \! X4 @; x( G. r( c- x3 H1 N1 y羔羊 / The Lamb/圣诞星4K.The.Star.2017.2160p.AMZN.WEB-DL.x265.10bit.HDR10Plus.DTS-HD.MA.5.1-4K电影下载0 [3 Z9 a- @1 P# w& P% {7 W

# K( H: E+ b8 S/ n* _圣诞星4K.The.Star.2017.2160p.AMZN.WEB-DL.x265.10bit.HDR10Plus.DTS-HD.MA.5.1【4K HDR 10.77 GB】
' [. L5 t' ^( v1 g 圣诞星4K.The.Star.2017.2160p.AMZN.WEB-DL.x265.10bit.HDR10Plus.DTS-HD.MA.5.torrent (文件大小:54.44 KB)
加入蓝光高清网VIP会员  无限制下载本站所有资源---点这里

资源下载、资源播放、字幕使用、无法下载等常见问题---点这里
回复

使用道具 举报

精彩评论1

@时光手机认证 发表于 7 天前 | 显示全部楼层
666666666
6 w0 y6 t3 {  q- _0 E. l, t
回复

使用道具 举报

您需要登录后才可以回帖 登录 | 立即注册

本版积分规则

烧友之家(蓝光高清网)本站内容部分由用户自主分享和转载自互联网,转载目的在于传递更多信息,并不代表本网赞同其观点和对其真实性负责。 如有侵权、违反国家法律政策行为,请联系我们,我们会第一时间及时清除和处理!
蓝光高清网 综合资讯平台
关注我们
  • 官方微信公众号
  • 扫码下载官方APP

X3.4 Licensed© 2001-2013 蓝光高清网 烧友之家APP |网站地图