游客您好
第三方账号登陆
  • 点击联系客服

    在线时间:9:00-18:00

    客服QQ

    1371333023

    电子邮件

    lanniao@1080pro.net
  • 烧友之家APP

    随时掌握烧友资讯

  • 扫描二维码

    关注微信公众号

推荐阅读
蓝鸟
未知星球 | 未知职业
  • 关注0
  • 粉丝2
  • 帖子93845
精选帖子
开启左侧

单身指南 4K.How.to.Be.Single.2016.2160p.AMZN.WEB-DL.x265.10bit.HDR10Plus.DTS-HD.MA.5.1-4k电影下载—14.72 GB

[复制链接]
蓝鸟 发表于 2021-4-1 10:10:46 | 显示全部楼层 |阅读模式 打印 上一主题 下一主题
单身指南
上映时间:2016年
类型:喜剧 爱情 
地区:美国 
导演:克利斯汀·迪特
主演:达科塔·约翰逊 / 蕾蓓尔·威尔森 / 爱丽森·布里 / 莱斯利·曼恩 / 小达蒙·韦恩斯
画质标准:4K HDR  封装音轨:DTS-HD.MA 5.1 
豆瓣评分:6.8分

加入蓝光高清网,轻松下载最新4k资源

您需要 登录 才可以下载或查看,没有帐号?立即注册

x
简       介6 l9 P+ f1 f& c

" m2 k- w6 w/ `6 q  爱丽丝(达科塔·约翰逊 Dakota Johnson 饰)和男友之间的感情走到了尽头,为了给这段恋情寻找新的可能性,她决定暂时离开男友,离开家乡,前往纽约闯荡。罗宾(瑞贝尔·威尔森 Rebel Wilson 饰)的个性大大咧咧,白天,她是法律事务所里衣着得体的小助理,每当夜幕降临,她便会摇身一变,成为夜场里最闪亮的女王。1 f  H* R) n* R8 s5 W- k  N
  梅格(莱斯利·曼恩 Leslie Mann 饰)早已经看穿了婚姻的本质,是一名不婚主义者,可是,一个属于她的孩子对于梅格来说却有着致命的吸引力。露西(爱丽森·布里 Alison Brie 饰)的社交圈很小,因此她将脱单的期望寄托在了虚拟的社交网络中,结果却屡屡令她失望。

; w" r' W$ N$ n) B! j& o! b3 _3 G) T# l! r/ U/ b) G
( i  E. Q- f/ N5 `5 f6 N
影片参数) F8 D, l. l* {" \
单身又如何(港) / 单身啪啪啪(台)/单身指南4K.How.to.Be.Single.2016.2160p.AMZN.WEB-DL.x265.10bit.HDR10Plus.DTS-HD.MA.5.1-4k电影信息2 x/ G1 a5 T" ]. ~' \3 J2 P
Video, m& g1 t0 A6 D9 ?
ID : 1
3 u/ U: b1 k5 X" _4 [' u) D7 T+ RFormat : HEVC
1 D; p8 c0 I: x/ N2 |. }: y5 }Format/Info : High Efficiency Video Coding  H' I2 `- P* {- n; E# n; n
Format profile : Main 10@L5@Main4 I: ]2 m3 ~% M) I+ J( A+ B
HDR format : SMPTE ST 2094 App 4, Version 1, HDR10+ Profile B compatible
# p$ s% y) S6 ^! i' W4 o& x' uCodec ID : V_MPEGH/ISO/HEVC
, Y8 ^+ {' `0 @* ZDuration : 1 h 49 min/ X* J8 ~* d* Y: ~0 L
Bit rate : 14.9 Mb/s; n  F4 r0 B( u; L4 B& F; r
Width : 3 840 pixels% y1 q+ |) I+ N& K  L
Height : 1 600 pixels8 ~8 X7 ~5 ^: R* |
Display aspect ratio : 2.40:1
; g1 J7 P8 M" U+ l2 O2 i9 XFrame rate mode : Constant  c7 p7 A: l4 w; E) Y# X
Frame rate : 23.976 (24000/1001) FPS
2 {- z& n  K( ]5 I) v0 mColor space : YUV7 k: d( h: _& X8 p$ q
Chroma subsampling : 4:2:0
8 P% b; ]/ _" ~+ o, c! v8 h6 LBit depth : 10 bits
5 @7 e* a3 c# Z7 J5 d- A% _Bits/(Pixel*Frame) : 0.101. L4 K" Z* d7 F! [7 K5 C
Stream size : 11.4 GiB (77%)
2 t7 p, V+ O: p9 _Default : Yes
4 @- N( R& @6 {$ \- J5 S/ L* }: fForced : No% c9 K; y( u4 h- B
Color range : Limited
* t4 i1 x# i6 y) EColor primaries : BT.2020
7 y) A) [) A) e* b$ @3 J  jTransfer characteristics : PQ- c5 l# _/ u; i1 F; j$ w1 p$ ?
Matrix coefficients : BT.2020 non-constant
' b* m) B4 b% M4 C* c0 sMastering display color primaries : R: x=0.680000 y=0.320000, G: x=0.265000 y=0.690000, B: x=0.150000 y=0.060000, White point: x=0.313000 y=0.329000
, r8 E7 t8 H, R# @$ x  }; nMastering display luminance : min: 0.0050 cd/m2, max: 1000 cd/m2
) Y1 v1 F( B- Z( @5 v3 qMaximum Content Light Level : 4000 cd/m2- X; o4 z1 K0 I
Maximum Frame-Average Light Level : 673 cd/m28 t! g0 R" p! \' ^# ?9 f

4 ?5 F  o9 Z: X8 a/ r
- ~) M4 X: a9 C1 I
Audio #1
1 l; |& Y/ h) f, d% ~) KID : 25 R, c6 s  r: ?- r1 R) ?
Format : DTS XLL% t4 J. H6 `- W9 q1 r
Format/Info : Digital Theater Systems4 G# C8 i7 B7 y9 s2 E: S9 S
Commercial name : DTS-HD Master Audio$ ^) r9 |! Z: ]: m% w2 U2 m
Codec ID : A_DTS/ O1 u2 x) t/ W5 _, S6 N- h# ]; y
Duration : 1 h 49 min
2 ^, s; i- I9 ?' a# j$ u( b7 wBit rate mode : Variable
$ n, T+ }; d+ ^& h. aBit rate : 3 682 kb/s' \, E- ]3 n# n, \6 p- i
Channel(s) : 6 channels
1 Z" i' h9 x; k8 R$ JChannel layout : C L R Ls Rs LFE
' B- k9 P; i3 n5 P: dSampling rate : 48.0 kHz5 M, |" Q2 j, [9 L7 S
Frame rate : 93.750 FPS (512 SPF)
% v* p- V2 d" l9 H& p5 P8 G6 o: xBit depth : 24 bits; _$ }8 t+ p4 w0 h# v
Compression mode : Lossless  a' G/ [' m' y: a
Delay relative to video : 5 ms" X, ~; K, L* [1 T+ j
Stream size : 2.82 GiB (19%)
/ |& w/ @; `1 @+ B" _7 ETitle : DTS-HD MA 5.10 x9 w$ `7 `) W
Language : English3 R; H# r$ g& }; m5 B" i7 t
Default : Yes8 Q  R- I4 I: q/ x% Q
Forced : No
8 X& V( D: g5 |8 h! }% E4 \" @. Q* C* |- X

/ N+ \8 U, c$ g  f6 y& t/ k5 u) nAudio #2
  Y: A: _8 k$ g7 E5 J+ O0 E/ _ID : 3
# g; V0 v1 ?$ f& S- WFormat : AC-3
9 m* z5 Y+ t( L2 S! TFormat/Info : Audio Coding 3
$ K! [& J, P' lCommercial name : Dolby Digital% S1 [# ^7 m! A& P; E8 q
Codec ID : A_AC38 o3 ~) @( w; Q* k9 J# d
Duration : 1 h 49 min( m) \" y+ K& q5 L5 I+ O3 A7 x
Bit rate mode : Constant; t) G6 e( d6 r: Q
Bit rate : 640 kb/s
6 Q( I4 N3 `) X) S6 K0 l( E" W* a3 yChannel(s) : 6 channels# p) O; t" Y, B
Channel layout : L R C LFE Ls Rs
$ l6 ]- n% q! e3 F6 SSampling rate : 48.0 kHz
! \8 y% C/ {" J& J& p% GFrame rate : 31.250 FPS (1536 SPF)% b% ^1 }4 p* j/ H' O
Compression mode : Lossy
: o4 e3 @2 J  ]2 g; b/ aStream size : 503 MiB (3%)
) Z  ?1 Q! @  p" i1 ETitle : DD 5.1/ P9 B$ M: M/ v# Z9 s
Language : English
9 R; e. B; H/ n% O- Q0 kService kind : Complete Main4 Q% P* v. j7 x8 g  B
Default : No
0 t; I6 B) W* u5 e$ ^Forced : No

; R) N% [3 ^: d& {蓝光高清网提示您  点击下方附件名称  马上开始下载" c8 H4 @+ b+ ~3 O

/ \' |: V& R/ [' D$ G: T

7 U1 M2 D! @6 c" O单身又如何(港) / 单身啪啪啪(台)/单身指南4K.How.to.Be.Single.2016.2160p.AMZN.WEB-DL.x265.10bit.HDR10Plus.DTS-HD.MA.5.1-4K电影下载
3 F" M! v9 v4 q  D) x2 @
9 \% }! i  o3 m单身指南4K.How.to.Be.Single.2016.2160p.AMZN.WEB-DL.x265.10bit.HDR10Plus.DTS-HD.MA.5.1【4K HDR 14.72GB】
# X7 Q- y7 s$ y+ A1 J( [/ | 单身指南4K.How.to.Be.Single.2016.2160p.AMZN.WEB-DL.x265.10bit.HDR10Plus.D.torrent (文件大小:74.22 KB)
加入蓝光高清网VIP会员  无限制下载本站所有资源---点这里

资源下载、资源播放、字幕使用、无法下载等常见问题---点这里
回复

使用道具 举报

您需要登录后才可以回帖 登录 | 立即注册

本版积分规则

烧友之家(蓝光高清网)本站内容部分由用户自主分享和转载自互联网,转载目的在于传递更多信息,并不代表本网赞同其观点和对其真实性负责。 如有侵权、违反国家法律政策行为,请联系我们,我们会第一时间及时清除和处理!
蓝光高清网 综合资讯平台
关注我们
  • 官方微信公众号
  • 扫码下载官方APP

X3.4 Licensed© 2001-2013 蓝光高清网 烧友之家APP |网站地图