游客您好
第三方账号登陆
  • 点击联系客服

    在线时间:9:00-18:00

    客服QQ

    1371333023

    电子邮件

    lanniao@1080pro.net
  • 烧友之家APP

    随时掌握烧友资讯

  • 扫描二维码

    关注微信公众号

推荐阅读
蓝鸟
未知星球 | 未知职业
  • 关注0
  • 粉丝2
  • 帖子93845
精选帖子
开启左侧

虎胆龙威2 4K.Die.Hard.2.1990.2160p.AMZN.WEB-DL.x265.10bit.HDR10Plus.DTS-HD.MA.5.1-4k电影下载—15.20 GB

[复制链接]
蓝鸟 发表于 2021-4-2 10:38:35 | 显示全部楼层 |阅读模式 打印 上一主题 下一主题
虎胆龙威2
上映时间:更早
类型:动作 惊悚 犯罪 
地区:美国 
导演:雷尼·哈林
主演:布鲁斯·威利斯 / 邦妮·比蒂丽娅 / 威廉·阿瑟东 / 雷金纳德·维尔约翰逊 / 弗兰科·内罗
画质标准:4K HDR  封装音轨:DTS-HD.MA 5.1 
豆瓣评分:7.8分

加入蓝光高清网,轻松下载最新4k资源

您需要 登录 才可以下载或查看,没有帐号?立即注册

x
简       介
7 J+ b: _) b3 i6 C
) o3 ?* m6 n) v/ P  o* j! S  圣诞前夕,麦卡伦(布鲁斯•威利斯 饰)正在华盛顿的机场等待妻子霍莉(邦尼•彼地丽娅 饰)乘飞机归来过节。然而无意中他却发现了一个重大的阴谋:被议会解职的特种部队施上校正率领部下准备解救被引渡的中美洲毒枭艾将军。4 w4 D0 m) W! v9 N/ Y
  麦卡伦将此事告知了机场警卫队的罗队长,但后者的官僚作风和愚蠢却使这一切未能得到阻止。施上校带领部下占领了机场附近的一座小教堂,设置了一个飞行控制中心,并切断了机场控制塔与空中的一切联系,使众多的客机无法降落。而麦卡伦的妻子霍莉此时却正在其中的一架飞机上。# K* u' J. w0 J' J
  为了解救妻子和在空中的众多客机,麦卡伦不得不再次进行艰苦的努力。

% |' P4 j; n4 @0 s
7 \+ f( H. m$ ~6 r/ Q( s

* m- X4 |$ y# i; V7 p! s8 \( ]影片参数: s* |. |) {& ~3 z
终极警探2(台) / 终极警探续集 / Die Hard 2: Die Harder / 58 minutes pour vivre/ 虎胆龙威2 4K.Die.Hard.2.1990.2160p.AMZN.WEB-DL.x265.10bit.HDR10Plus.DTS-HD.MA.5.1-4k电影信息
( {% L9 n- @2 }+ J3 S4 ?Video
3 l4 Y) r0 F0 R* u/ s3 i% uID : 1' Z# M) c, H5 {2 x; I- x8 q4 r1 [
Format : HEVC
& Y$ D. o. k! m1 [- }- z& m  sFormat/Info : High Efficiency Video Coding" E- l( F8 o5 _0 A: T3 r) [
Format profile : Main 10@L5@Main
0 s" \0 b) W- qHDR format : SMPTE ST 2094 App 4, Version 1, HDR10+ Profile B compatible
/ H6 w/ X% e7 i0 g( |Codec ID : V_MPEGH/ISO/HEVC  ~7 i8 q: l; S3 K0 D1 \
Duration : 2 h 3 min
& L8 M- P1 n7 f) s5 jBit rate : 14.7 Mb/s) x/ \7 c. s/ e, Z/ i0 u$ B2 U
Width : 3 840 pixels# F9 Z4 a5 L0 V3 D
Height : 1 600 pixels- u  }- e7 i6 G6 b, o. y
Display aspect ratio : 2.40:11 ?7 s$ K" G4 H
Frame rate mode : Constant6 N- X* n# Y# w
Frame rate : 23.976 (24000/1001) FPS
# z  K1 M, U4 P" c7 ^, y! C$ yColor space : YUV7 J/ v. Q3 ~4 ^% `$ T
Chroma subsampling : 4:2:0
$ d3 T7 n; F- E9 vBit depth : 10 bits
8 v; \& n; b, Y; M6 w. pBits/(Pixel*Frame) : 0.100
) L- h: P& ?: `, i' s) SStream size : 12.7 GiB (83%)
" U$ U! V6 j/ Q( M9 bDefault : Yes
1 c: ]  X1 r5 q) B1 g4 FForced : No
  i8 c) F/ A0 i6 X% B& U5 x$ bColor range : Limited
5 T( J+ N& T7 `# m6 cColor primaries : BT.2020
0 H0 v* n+ S' V% e! `  I0 ETransfer characteristics : PQ3 \6 G* c/ V) B" H7 T9 K! v
Matrix coefficients : BT.2020 non-constant
7 Z: W7 R! }" q: m% d5 fMastering display color primaries : Display P3+ r5 d* `" ?8 `9 ~. b- f6 N
Mastering display luminance : min: 0.0050 cd/m2, max: 1000 cd/m27 I2 k3 k/ A- t) n7 ?: l
7 @8 i4 @* X9 t  z, K! p( e2 n9 |
3 f2 x+ s* A" {7 W: c; _
Audio #1& n7 D$ U7 S, j) ^: {3 R
ID : 2* {# m0 Y. j% w6 b! M6 p
Format : DTS XLL5 N- E% o- \, I6 f
Format/Info : Digital Theater Systems
3 R3 m/ K5 c/ TCommercial name : DTS-HD Master Audio2 `" T! C; o: I- m3 N' ^
Codec ID : A_DTS
9 T/ R6 F9 I" ]% @Duration : 2 h 3 min8 f( ]% P3 V8 r, {) i. V6 x
Bit rate mode : Variable! e4 B" H; a) h& D3 S+ |
Bit rate : 2 271 kb/s
0 s2 m' b* J" k1 C# h, b! eChannel(s) : 6 channels) P# Z$ P0 o$ t$ P1 e0 r
Channel layout : C L R Ls Rs LFE
9 Q+ B! L; p8 J2 h( a8 S& G9 u" lSampling rate : 48.0 kHz
6 Y  ~, K% k; \* j( n' VFrame rate : 93.750 FPS (512 SPF)
) ?  ~2 _) V+ F1 i) f$ S( W( S4 ^5 rBit depth : 24 bits* W% b: d$ X4 f+ n  n: J  S0 d2 S
Compression mode : Lossless% }* ?0 x- u8 @0 n% g* K/ J
Delay relative to video : 122 ms
* s) C: O# K# ~! u, t8 gStream size : 1.96 GiB (13%)
0 t8 m' v1 L; C1 [# j- o- LTitle : DTS-HD MA 5.1; [; m3 O' e2 J# ^# e, {* I
Language : English
$ t" l: F, x( NDefault : Yes( _7 H; o; t  K# D5 c
Forced : No8 x5 f5 z) b$ J) ~
- a6 m# N- t) _$ s. ]& Z2 P

6 @0 B, n# Y) z4 i* LAudio #2
7 W2 f5 X& i+ d3 C; R  ^8 W$ d% Y1 D# AID : 3
' Z" R" c( D+ G- g$ o6 kFormat : AC-3
: [7 g/ g$ A; X* `$ EFormat/Info : Audio Coding 3
7 p/ u4 R% {7 W9 y5 FCommercial name : Dolby Digital
' N2 R# W) m/ f* R) j9 JCodec ID : A_AC3
, C  r. d8 a8 V. S! U$ M3 a9 ]Duration : 2 h 3 min
5 I6 [: B/ {9 I( q5 j* {Bit rate mode : Constant
+ g/ C8 \4 ^) H& T7 l/ v( ~Bit rate : 640 kb/s
: V9 F4 G' v/ q5 ]& s! k& jChannel(s) : 6 channels1 a) d" K, M3 ?9 P* f" f2 B  u$ t
Channel layout : L R C LFE Ls Rs
0 b# F! J' l2 @# e! c. ^Sampling rate : 48.0 kHz" }8 E/ }* U9 P; d4 K6 C% I' v
Frame rate : 31.250 FPS (1536 SPF): U. I5 w6 C, c9 ~3 z
Compression mode : Lossy6 x$ i3 T. V; ]+ o
Stream size : 565 MiB (4%)
1 a% @0 X! n- E& h' O! q" XTitle : DD 5.1
; g0 M. h% t& ^+ M# ]9 I5 [* NLanguage : English1 A& @4 |% U6 N' k
Service kind : Complete Main
. K1 q% H) V# `6 n/ TDefault : No
% n3 B/ n1 ?& _; k8 D( m: ^Forced : No/ X. u8 ]8 d1 N( g+ w( n' S

# @( h( S, p5 _  N
( Y4 ]/ G1 ~+ ^8 O
Text  u: H4 e) x5 u$ v- K: Z
ID : 4
2 Z# L8 k  p0 z$ W: i/ G0 xFormat : UTF-8+ }! a$ b7 h% n  o6 P4 U
Codec ID : S_TEXT/UTF8$ Q( R$ o6 D' @5 h0 F5 y6 ?
Codec ID/Info : UTF-8 Plain Text
- k9 k: B1 x: s4 Z! J' IDuration : 1 h 55 min
) {9 C( J6 U0 f0 Z& d2 fBit rate : 66 b/s8 Z7 {% C3 b: ~  C
Count of elements : 13613 s) X0 H- u9 k" d! S) p: _
Stream size : 56.4 KiB (0%)
+ ]! ?. J- g. w$ b' A( JTitle : English-SRT
( c' \$ S6 L' hLanguage : English
8 n* r- y. u) r/ Z* y0 `7 ~4 JDefault : Yes
9 ]  g1 D1 }4 O& h; MForced : No
8 b! R) Q- i5 F( G( A5 G5 \8 M5 b7 r$ Q

' E0 H8 Q& ~. ^& _) K& KMenu; [0 s) G9 x4 i: y3 |) a& b( r
00:00:00.000 : en:Studio Logo
0 G9 I0 b7 |6 c" W" a00:00:28.000 : en:McClane Tries to Talk His Way Out of a Towing9 W4 {1 j( `! N. H  p* d" R
00:01:49.000 : en:McClane Enters the Airport as Col. Stuart Prepares/ f' T" `) f  z# O& E" w6 N: V
00:03:30.000 : en:Holly Talks with John from the Plane
! X( q" j  e! g00:06:12.000 : en:The Church Custodian Gets an Unexpected Visit
/ g0 q# O- F: W: L8 U% h00:08:13.000 : en:The Terrorists Prepare while McClane Lurks2 J9 V. K& k0 z' Y
00:12:14.000 : en:McClane Investigates3 \* W) u0 ?, b. R
00:16:19.000 : en:Thornburg Complains about His Seat- c  |1 G6 O9 D# D  Z6 C
00:17:57.000 : en:John Gets His Piece and Shield Back) e: e0 l: [. V3 w7 [
00:18:32.000 : en:Miller Reports Back to Stuart. A. H. @6 ?" Z7 @4 T2 B
00:19:30.000 : en:John Argues with Lorenzo about the Crime Scene
8 v  h, _& l0 H! Y+ _! _7 E00:22:30.000 : en:John Gets an Idea
. L. ^. O8 h/ `7 \. W4 J- V00:23:20.000 : en:Gen. Esperanza Needs His Chains Loosened
( N8 L6 }- M3 Y+ b3 n00:25:08.000 : en:John Gives Al a Call
( e2 I8 _% l8 W2 U% a  J, ]' O. \00:27:01.000 : en:The Weather Grows Inclement5 g/ v5 n) B/ z; R9 c
00:28:15.000 : en:Al Reports His Findings
4 v2 G; T$ M7 B8 ]00:29:46.000 : en:McClane Shows Trudeau and Lorenzo the Terrorist\'s Dossier* M. o) o. f6 q+ v
00:30:54.000 : en:Stuff Starts Going Down7 r7 Q; ?4 y* x& {( k* i* W
00:33:20.000 : en:Trudeau Receives a Call3 O9 B' o; ?0 O/ I7 o, }
00:36:33.000 : en:McClane Is Thrown Out0 E9 s' m6 Z9 N
00:38:21.000 : en:McClane\'s Up to His Old Antics
' c0 b9 X1 y& L4 |4 `- W- k00:39:31.000 : en:McClane Meets Marvin
# {6 ?# @+ [3 ~# i9 C* u; y  D4 V3 r00:40:56.000 : en:Trudeau Relays a Message to the Pilots
8 l  U2 _% {! j% G- ]: b00:41:53.000 : eneslie and McClane Head for the Skywalk4 v" q  k" @& }( q) ^( k9 o
00:43:35.000 : en:McClane Hates It When He\'s Right
! p) Q0 u/ z  f4 [2 N& Z/ x& \00:48:56.000 : en:Thornburg Notices Something\'s Amiss; b: i/ u/ L2 ]! z! }! F
00:49:55.000 : eneslie Tells McClane that the Walkie Talkies Are Encrypted8 U: f) _) {  Z' g. u9 f: t) b1 \
00:50:56.000 : en:Stuart Has a Sinister Plan in the Works
, A9 N; _  o3 `% ?+ E  r00:54:17.000 : en:Windsor Flight Is Cleared for Landing
: g1 R8 `% e2 d, w' s  Y( l00:58:27.000 : en:Things Are Looking Bleak
/ ?3 d0 P% v3 K3 V1 M: k01:00:43.000 : en:Thornburg Hatches a Plan3 W3 g1 R9 Y) @- E% |
01:02:38.000 : en:The Blue Light Team Arrives  X: b& Q$ F, V6 [
01:04:19.000 : eneslie Devises a Method of Communication with the Planes
7 f8 D" Y) ~5 D- \) a5 |% M) S/ T01:05:10.000 : en:McClane Tries to Help Out
' ~7 ~  F; o9 I, \1 s) ]7 U01:06:06.000 : en:The Outer Beacon Starts Talking6 r' p* r7 U' c+ j* }. y) }
01:07:33.000 : en:McClane Revisits Marvin for Assistance
6 M2 f5 o* k" w01:09:34.000 : en:Esperanza Urges the Pilots to Land the Plane8 I( A% A3 i9 Z5 h" H9 F( Q. K
01:12:05.000 : en:Terrorists Assist the General in Landing His Plane
: q- Y$ H6 @) ~8 d/ |2 M" b01:13:08.000 : en:McClane Makes His Way to the General\'s Airstrip8 H$ ?3 r( q: s: a7 t  E2 w, q
01:15:26.000 : en:The General Has Landed5 B& c6 i: q" y% J
01:19:12.000 : en:Thornburg Makes a Call to the Station
7 k. j7 {0 l2 C; R& U- H: s01:20:56.000 : en:Barnes Makes a Discovery
/ s$ a4 j, z/ a' X9 u01:22:32.000 : en:Holly Wonders How Long the Plane Can Keep Circling
$ B( S/ M7 {% {' y; E01:23:25.000 : en:McClane and Leslie Head for the Church- z( n7 R+ q8 U# j' h  q
01:25:27.000 : en:The Blue Light Team Moves Out9 C' f: S! E0 H
01:26:55.000 : en:Maj. Grant Takes Control
7 L$ h, U5 d1 G% P: D; @6 x01:29:19.000 : en:The Terrorists Pull Out$ f5 ^4 o& ]: r4 e0 f
01:30:52.000 : en:McClane Pursues the Remaining Terrorists% ~; z( q2 f( F7 ~2 m/ I- Z8 }. p# N$ C
01:33:15.000 : en:Stuart Confirms His Plane\'s Location
3 `5 Y0 Y" t! d2 T; L6 ~01:34:21.000 : en:Thornburg Reaches WZDC
7 J2 w$ V* y- U3 v% k01:36:10.000 : en:McClane Gets Through to Lorenzo
  A7 F& |2 ~$ G! L  |/ l01:39:08.000 : en:Holly Puts a Cork on Things
; r, j; e& N& U. `9 K8 a" Q01:41:07.000 : en:The Terrorists Prepare to Depart1 k6 E% T6 ^# m% T* J1 C2 H
01:42:29.000 : en:Trouble in the Air) m# R, y. N6 L5 b8 y
01:44:51.000 : en:McClane Crams a Jacket in the Aileron
* M5 y5 A8 l+ e: |2 `" k01:47:49.000 : en:McClane Engages in Fisticuffs with Stuart
0 z) t" i; K4 l, b2 I$ B* p01:51:09.000 : en:The Planes Begin to Land
/ x3 r4 r2 k4 _+ r6 R01:53:24.000 : en:John Is Reunited with Holly
& I. P+ o& _, X& m01:56:24.000 : en:End Credits
/ a  U6 W% B. @, Q- s
蓝光高清网提示您  点击下方附件名即可开始下载/ m+ E. U8 m2 J

2 @7 L3 `1 i% U6 ?终极警探2(台) / 终极警探续集 / Die Hard 2: Die Harder / 58 minutes pour vivre/ 虎胆龙威2 4K.Die.Hard.2.1990.2160p.AMZN.WEB-DL.x265.10bit.HDR10Plus.DTS-HD.MA.5.1-4K电影下载: R- _3 w1 @0 W* d5 c

6 z4 q7 t  h$ h, R2 P( W虎胆龙威2 4K.Die.Hard.2.1990.2160p.AMZN.WEB-DL.x265.10bit.HDR10Plus.DTS-HD.MA.5.1【4K HDR 15.20 GB】
4 K' m# W5 ^4 w$ X, J$ a# v 虎胆龙威2 4K.Die.Hard.2.1990.2160p.AMZN.WEB-DL.x265.10bit.HDR10Plus.DTS-H.torrent (文件大小:76.57 KB)
加入蓝光高清网VIP会员  无限制下载本站所有资源---点这里

资源下载、资源播放、字幕使用、无法下载等常见问题---点这里
回复

使用道具 举报

精彩评论1

猫爪下的钢琴手机认证 发表于 2021-4-6 23:53:13 | 显示全部楼层
非常经典!
回复

使用道具 举报

您需要登录后才可以回帖 登录 | 立即注册

本版积分规则

烧友之家(蓝光高清网)本站内容部分由用户自主分享和转载自互联网,转载目的在于传递更多信息,并不代表本网赞同其观点和对其真实性负责。 如有侵权、违反国家法律政策行为,请联系我们,我们会第一时间及时清除和处理!
蓝光高清网 综合资讯平台
关注我们
  • 官方微信公众号
  • 扫码下载官方APP

X3.4 Licensed© 2001-2013 蓝光高清网 烧友之家APP |网站地图