游客您好
第三方账号登陆
  • 点击联系客服

    在线时间:9:00-18:00

    客服QQ

    1371333023

    电子邮件

    lanniao@1080pro.net
  • 烧友之家APP

    随时掌握烧友资讯

  • 扫描二维码

    关注微信公众号

推荐阅读
蓝鸟
未知星球 | 未知职业
  • 关注0
  • 粉丝2
  • 帖子93845
精选帖子
开启左侧

从不,很少,有时,总是 4K.Never.Rarely.Sometimes.Always.2020.2160p.AMZN.WEB-DL.x265.10bit.HDR10Plus.DDP5.1-4k电影下载—11.07 GB

[复制链接]
蓝鸟 发表于 2021-4-2 10:44:05 | 显示全部楼层 |阅读模式 打印 上一主题 下一主题
从不,很少,有时,总是
上映时间:2020年
类型:剧情 
地区:美国 英国 
导演:伊丽莎·希特曼
主演:茜德尼·弗拉尼根 / 塔莉娅·莱德 / 西奥多·佩尔兰 / 瑞安·艾戈尔德 / 莎伦·凡·艾腾
画质标准:4K HDR  封装音轨:Dolby TrueHD 5.1 Dolby Atmos 
豆瓣评分:7.6分

加入蓝光高清网,轻松下载最新4k资源

您需要 登录 才可以下载或查看,没有帐号?立即注册

x
简       介
) w' T( M+ R! l0 V! n' M
9 i7 m" B) r* t6 F* r/ n$ P+ i, `  故事发生在位于美国宾夕法尼亚州的一个偏僻的小镇上,奥顿(茜德尼·弗拉尼根 Sidney Flanigan 饰)是生活在那里的一个平凡的少女。个性内向的奥顿和家人们关系非常的疏远,生活里也没什么能说得上话的朋友。一天,奥顿震惊的发现自己怀孕了,她前往镇上的医院就诊,在这个民风保守的小地方,堕胎是不被允许的。: M) o1 r, J+ \. e2 y5 d3 o
  无奈之下,奥顿只能自己想办法打掉这个孩子,但试了好几个方法均以失败告终。表妹思凯乐(塔利娅·莱德 Talia Ryder 饰)是奥顿唯一的朋友,敏感又细心的她发现奥顿最近的表现非常的异常。几经询问之下,奥顿终于将自己的秘密告诉了思凯乐,思凯乐当机立断决定带着奥顿前往纽约堕胎。

& a9 V1 y4 X1 t# W" [
. B* G! @4 u- J( G) j6 m

3 E; ?' k, x6 p2 B- ^$ m影片参数
1 s' K$ ]/ f3 @5 |
绝不、很少、有时、总是 / 从不,很少,有时,总是 4K.Never.Rarely.Sometimes.Always.2020.2160p.AMZN.WEB-DL.x265.10bit.HDR10Plus.DDP5.1-4k电影信息1 z+ W1 }3 W9 y3 X' i& E
Video
! p! d, d  b& W$ U7 P& C1 bID : 1% v, p1 l6 P6 o. ~
Format : HEVC% }3 t* L2 n" U1 O7 V( c* a
Format/Info : High Efficiency Video Coding
% |: G4 @5 {+ K  R/ ]+ y# aFormat profile : Main 10@L5@Main
( c0 n3 W3 q7 D& UHDR format : SMPTE ST 2094 App 4, Version 1, HDR10+ Profile B compatible
1 \/ W( W# d6 x2 l! C5 XCodec ID : V_MPEGH/ISO/HEVC
/ S9 p$ U; }9 SDuration : 1 h 41 min
# _2 k& u0 Y4 {* C- c5 ^Bit rate : 15.0 Mb/s
+ r# i7 }, n, ]1 L9 V$ o0 x/ sWidth : 3 840 pixels# @1 K" j" u+ o) k8 M) J9 S6 q
Height : 2 080 pixels3 |% x" t; {# f  K; S
Display aspect ratio : 1.85:1
/ x' e( {$ B3 e0 r4 }, n$ KFrame rate mode : Constant/ I" ]. G0 `9 V$ {* W5 D* ^
Frame rate : 23.976 (24000/1001) FPS) |4 J/ Y8 o* \+ y5 l6 E
Color space : YUV: ?5 K6 R* @2 q  N$ R( f
Chroma subsampling : 4:2:0
7 i1 y2 @4 g- SBit depth : 10 bits, H+ i  p. ~: |' s& k" M
Bits/(Pixel*Frame) : 0.078
4 E3 d5 f- L" r; @( aStream size : 10.6 GiB (96%)) s! {# Y6 M  Z6 t4 b/ A; S1 E
Default : Yes
% c0 X5 g, e; T8 y* A' `+ d& ^Forced : No8 T5 y/ N/ g1 G2 H, d
Color range : Limited
4 x9 V" p+ [' w" a; I/ aColor primaries : BT.2020+ e1 K4 x/ F; d- J2 }" [4 B
Transfer characteristics : PQ
1 a6 t$ y1 B3 Z$ ]7 H* O! i  _Matrix coefficients : BT.2020 non-constant# M' s6 d7 i0 H4 f! ?$ y3 a, Z
Mastering display color primaries : Display P3
$ M6 k* W9 w$ T* }" gMastering display luminance : min: 0.0050 cd/m2, max: 1000 cd/m24 Y" i% ^' d& F% r/ Z
Maximum Content Light Level : 314 cd/m25 ^2 U9 m( @' T
Maximum Frame-Average Light Level : 43 cd/m2
. U. v. k2 M4 U7 |6 r8 z. k# R% y: u( g$ Q0 b
; J" T+ ], P8 _; u
Audio$ W1 {3 u7 M6 F2 b- \- h$ |
ID : 2
; @* O" y! A$ \3 g4 o2 dFormat : E-AC-3/ _( v$ f) n; M& ~# W% Q
Format/Info : Enhanced AC-3
  n, G+ ^- k6 k: \Commercial name : Dolby Digital Plus
) l! k$ k4 i% uCodec ID : A_EAC37 B7 Q" V' z9 @5 {6 N
Duration : 1 h 41 min
" C+ @. W. v/ N8 GBit rate mode : Constant1 @! u  w. t. F- l: y+ I3 c/ |
Bit rate : 640 kb/s* i' [: T+ T9 G; }: t" W
Channel(s) : 6 channels
' Z9 p5 p4 Z% H8 qChannel layout : L R C LFE Ls Rs
# j. C5 ~9 s+ _2 F" r0 Y3 R9 TSampling rate : 48.0 kHz. q4 s4 I4 x3 |- d) {/ Y
Frame rate : 31.250 FPS (1536 SPF)
& A7 ~% s/ B! m. v- x+ O: u) JCompression mode : Lossy, r) i! h$ }- Z) W: M  w
Stream size : 464 MiB (4%)
8 R+ h" _8 w6 W" x% A( h. KTitle : English
8 }- j3 I" B; T6 V/ N: eLanguage : English
/ k; s/ J8 b3 c+ ^- X2 oService kind : Complete Main/ v0 i' i$ k: v2 R  V4 \
Default : No/ c# j; k- a0 u  s
Forced : No

# \/ N; w9 Y& C5 Q8 I
. p/ A9 E" Q1 N# k: K" j蓝光高清网提示您  点击下方附件名即可开始下载6 l" {+ H; N% ~4 W2 a3 Z
% O5 a  M5 {2 ]; K

/ P( o2 D3 K. T# u绝不、很少、有时、总是 / 从不,很少,有时,总是4K.Never.Rarely.Sometimes.Always.2020.2160p.AMZN.WEB-DL.x265.10bit.HDR10Plus.DDP5.1-4K电影下载( s& x3 m% ^. {# G: n% N- K8 |8 E
. L4 m' U7 X1 U' e+ Y5 v) H
从不,很少,有时,总是4K.Never.Rarely.Sometimes.Always.2020.2160p.AMZN.WEB-DL.x265.10bit.HDR10Plus.DDP5.1【4K HDR  11.07GB】
4 Y; f6 k- Y* W 从不,很少,有时,总是4K.Never.Rarely.Sometimes.Always.2020.2160p.AMZN.WE.torrent (文件大小:55.94 KB)
加入蓝光高清网VIP会员  无限制下载本站所有资源---点这里

资源下载、资源播放、字幕使用、无法下载等常见问题---点这里
回复

使用道具 举报

您需要登录后才可以回帖 登录 | 立即注册

本版积分规则

烧友之家(蓝光高清网)本站内容部分由用户自主分享和转载自互联网,转载目的在于传递更多信息,并不代表本网赞同其观点和对其真实性负责。 如有侵权、违反国家法律政策行为,请联系我们,我们会第一时间及时清除和处理!
蓝光高清网 综合资讯平台
关注我们
  • 官方微信公众号
  • 扫码下载官方APP

X3.4 Licensed© 2001-2013 蓝光高清网 烧友之家APP |网站地图