游客您好
第三方账号登陆
  • 点击联系客服

    在线时间:9:00-18:00

    客服QQ

    1371333023

    电子邮件

    lanniao@1080pro.net
  • 烧友之家APP

    随时掌握烧友资讯

  • 扫描二维码

    关注微信公众号

推荐阅读
蓝鸟
未知星球 | 未知职业
  • 关注0
  • 粉丝2
  • 帖子93845
精选帖子
开启左侧

混沌行走 4K.Chaos.Walking.2021.2160p.AMZN.WEB-DL.x265.10bit.HDR10Plus.DDP5.1-4k电影下载—11.60 GB

[复制链接]
蓝鸟 发表于 2021-4-3 12:24:33 | 显示全部楼层 |阅读模式 打印 上一主题 下一主题
混沌行走
上映时间:2021年
类型:动作 科幻 冒险 
地区:美国 
导演:道格·里曼
主演:汤姆·赫兰德 / 黛西·雷德利 / 德米安·比齐尔 / 大卫·奥伊罗 / 科特·萨特
画质标准:4K HDR  封装音轨:Dolby TrueHD 5.1 Dolby Atmos 
豆瓣评分:5.8分

加入蓝光高清网,轻松下载最新4k资源

您需要 登录 才可以下载或查看,没有帐号?立即注册

x
简       介9 s$ a" L% z4 g' A  @% ~
8 n3 b  ~# F! T( g
  人类在与地球相似的遥远外星建立了新家园,但这个星球上却有一种病毒,男人感染后可以听到其他人和动物的心声,每个男人脑子里的想法都能被他人听到,人与人之间不存在隐私,新星球上的普伦提司镇的男人们就不堪忍受自己的想法被人听见。
9 p% |8 [8 ~/ H. v. u; W$ O0 u  托德·赫维特(汤姆·赫兰德 饰)是出生于这座小镇的 男孩,他的认知中小镇没有女人是因为该星球土著居民蓝光兽家园被人类侵犯时故意让人类感染了噪音病毒,他们还杀光了所有女性。托德对此深信不疑,直到他遇到一个女孩。
' y- f" q0 s- c" e  托德在小镇附近的森林里遇到了一个叫维奥拉(黛西·雷德利 饰)的女孩,她来自遥远的地球,她的飞船因故坠毁在森林里,普伦提司镇的镇长在得知这个消息后立刻展开对他俩的追杀,托德为了保护女孩维奥拉只好一起出逃,开始了一段他意想不到且危机重重的星球冒险。
+ E- U. `% C, P

% U% M2 G. R( M  z, o! C/ p

0 J% R( I& v; o" [; s' t& F! V. S. z影片参数
- Z) M9 |- Z1 ~7 l
混沌漫步 / 噪反(台) / 读心叛变(港)/混沌行走4K.Chaos.Walking.2021.2160p.AMZN.WEB-DL.x265.10bit.HDR10Plus.DDP5.1-4k电影信息0 H  J9 ~( q% C9 N& O+ a) z+ @
Video* ?# r7 L$ C5 c- L
ID : 1
, W% I9 W. P& [Format : HEVC
; L7 p& p) P% K* S- dFormat/Info : High Efficiency Video Coding
  m+ L, a. l: r- \9 q7 SFormat profile : Main 10@L5@Main# y0 w4 X' q6 k4 c/ m$ e* B9 i0 _4 J
HDR format : SMPTE ST 2094 App 4, Version 1, HDR10+ Profile B compatible" D! u2 E6 V) v4 s0 [
Codec ID : V_MPEGH/ISO/HEVC1 h' U9 k) U2 d8 I
Duration : 1 h 48 min
0 r9 r- j! |2 f8 y2 ZBit rate : 14.6 Mb/s
7 _9 W  e7 R  ~0 f; a* t( U) KWidth : 3 840 pixels
: X, v; P1 m8 j0 N0 u. c# yHeight : 1 600 pixels; _+ }8 V4 p2 a( X. I) X
Display aspect ratio : 2.40:1% O3 V! p! h( B' O6 Y
Frame rate mode : Constant( m+ O2 s2 _( ~
Frame rate : 23.976 (24000/1001) FPS
% e" h/ P4 d& C! q! v" eColor space : YUV" A, K; o4 q6 F# K3 g, I
Chroma subsampling : 4:2:0
* s( `0 W8 v0 s4 I* M$ G. h0 LBit depth : 10 bits
/ W% Z7 `$ t7 Q9 k/ W" D5 l: r% aBits/(Pixel*Frame) : 0.099
; T* E' M! f1 p7 [Stream size : 11.1 GiB (96%)
# Y: Z7 }  W! w. |: B8 ]. _Default : Yes, F+ F1 J: S5 {1 G
Forced : No; \$ C+ h3 N$ O0 ?0 d
Color range : Limited: L9 N/ q) J  V9 d
Color primaries : BT.2020
. B" Q) w% Z# L* r, o1 bTransfer characteristics : PQ
+ ^7 b3 z* H+ \2 U& U% N6 bMatrix coefficients : BT.2020 non-constant
* W* E( M- w, t& v; B4 ^- Z" ?Mastering display color primaries : Display P3
$ Q$ r: S: R* O( V) `9 x/ pMastering display luminance : min: 0.0050 cd/m2, max: 1000 cd/m2- |4 x+ w' G( P1 W, P
Maximum Content Light Level : 1000 cd/m2: K7 ~1 k, q; W2 O) G. O
Maximum Frame-Average Light Level : 368 cd/m2$ q* N1 T/ _+ ?$ U2 b6 X" t
, ?- W$ H3 O4 n7 o: |

# L/ z! F& i9 HAudio0 y- A9 A; r" @9 t0 A+ G
ID : 2$ Z6 A9 t8 u$ h  E) Z
Format : E-AC-3
! T" W$ _0 r/ t$ B" b2 ~/ q1 ZFormat/Info : Enhanced AC-3: _6 H. O  }. [7 a6 u, M  Y
Commercial name : Dolby Digital Plus$ G% H$ W+ A. e( t* G
Codec ID : A_EAC3# ^  Y0 _! N& g
Duration : 1 h 48 min+ K. I. B6 Z( f9 E# i9 M
Bit rate mode : Constant/ g1 o0 t- {# w: [( ^4 \3 h
Bit rate : 640 kb/s! Z* m  Z8 s( h6 Q- X
Channel(s) : 6 channels% \2 P. Z! D  b' l9 X3 K9 p. k
Channel layout : L R C LFE Ls Rs2 @1 x/ s- X- r3 k; I* W/ w
Sampling rate : 48.0 kHz
. g. `; B- E# L* A3 A6 dFrame rate : 31.250 FPS (1536 SPF)
, R0 z9 f3 p+ C1 T/ wCompression mode : Lossy
0 e7 O2 {% {) [$ f  IStream size : 498 MiB (4%)
% j5 V" f$ ?* y: }Title : English- P9 B/ x- _* a. p' G, _! H0 O) V2 P4 W3 @
Language : English
0 n8 |" b9 I" q% N9 B; @/ qService kind : Complete Main
2 L) w- W$ [1 C; BDefault : No
: |0 K8 J5 Y& z$ z: g# Y: ^9 ?Forced : No
6 U& Z( u( _9 E) ?4 |! B6 o
$ G) U' k& l8 V
蓝光高清网提示您  点击下方附件名称  马上开始下载7 L* s  m8 Z, L3 {

2 k2 `) Y( w8 ]1 C; m+ @2 u
$ i1 F+ h6 S7 J  g, {
混沌漫步 / 噪反(台) / 读心叛变(港)/混沌行走4K.Chaos.Walking.2021.2160p.AMZN.WEB-DL.x265.10bit.HDR10Plus.DDP5.1-4K电影下载
5 t7 e0 M. z7 s+ B9 u
) `. v$ o+ Z- Z3 h混沌行走4K.Chaos.Walking.2021.2160p.AMZN.WEB-DL.x265.10bit.HDR10Plus.DDP5.1 【4K HDR 11.60 GB】; K+ C. P% l) l3 p" P; f' \6 a& d
混沌行走4K.Chaos.Walking.2021.2160p.AMZN.WEB-DL.x265.10bit.HDR10Plus.DDP5.torrent (文件大小:58.57 KB)
加入蓝光高清网VIP会员  无限制下载本站所有资源---点这里

资源下载、资源播放、字幕使用、无法下载等常见问题---点这里
回复

使用道具 举报

您需要登录后才可以回帖 登录 | 立即注册

本版积分规则

烧友之家(蓝光高清网)本站内容部分由用户自主分享和转载自互联网,转载目的在于传递更多信息,并不代表本网赞同其观点和对其真实性负责。 如有侵权、违反国家法律政策行为,请联系我们,我们会第一时间及时清除和处理!
蓝光高清网 综合资讯平台
关注我们
  • 官方微信公众号
  • 扫码下载官方APP

X3.4 Licensed© 2001-2013 蓝光高清网 烧友之家APP |网站地图