游客您好
第三方账号登陆
  • 点击联系客服

    在线时间:9:00-18:00

    客服QQ

    1371333023

    电子邮件

    lanniao@1080pro.net
  • 烧友之家APP

    随时掌握烧友资讯

  • 扫描二维码

    关注微信公众号

推荐阅读
蓝鸟
未知星球 | 未知职业
  • 关注0
  • 粉丝2
  • 帖子93845
精选帖子
开启左侧

异见者 4K.The.Dissident.2020.2160p.WEB-DL.x265.8bit.SDR.DDP5.1-4k电影下载—8.91 GB

[复制链接]
蓝鸟 发表于 2021-4-3 12:30:53 | 显示全部楼层 |阅读模式 打印 上一主题 下一主题
异见者
上映时间:2020年
类型:记录 惊悚 犯罪 
地区:美国 
导演:布莱恩·佛格尔
主演:Omar Abdulaziz / Fahrettin Altun / John O. Brennan / Hatice Cengiz / Anthony J. Ferrante
画质标准:4K SDR  封装音轨:Dolby TrueHD 5.1 Dolby Atmos 
豆瓣评分:7.6分

加入蓝光高清网,轻松下载最新4k资源

您需要 登录 才可以下载或查看,没有帐号?立即注册

x
简       介$ M. H# n& K- X

6 S/ e( c! a" |; @( |: q  故事聚焦2018年在伊斯坦布尔被残忍谋杀的《华盛顿邮报》记者Jamal Khashoggi。多项证据表明他极有可能是被沙特高层下达了刺杀令。- `& c' F9 _) Z

. v; J, t+ a# f' I) f1 l( M- E
2 E1 q: j$ j$ l1 L6 W% s
影片参数* M8 u+ Y' |# u8 |/ X( o, r# Q
异见者4K.The.Dissident.2020.2160p.WEB-DL.x265.8bit.SDR.DDP5.1-4k电影信息
$ h5 x+ |" F6 I( [+ X+ j# [Video
+ O8 J  C6 `0 N7 a& RID : 1
! W' J& g8 |* q* L1 X( l, VFormat : HEVC% e# a. G1 |; D0 D- k
Format/Info : High Efficiency Video Coding
% y5 b4 z# T$ l9 V# V% `) A0 S! w8 rFormat profile : Main@L5@Main, ?. X. m$ k1 K4 v/ Z
Codec ID : V_MPEGH/ISO/HEVC- Z8 f, ~  V" G
Duration : 1 h 57 min4 n. _; M. J+ y) Z7 s
Bit rate : 10.2 Mb/s$ q# c# M+ y$ ?3 m
Width : 3 840 pixels
" K3 G* G, A9 J. O4 ~! s& tHeight : 2 160 pixels3 u$ U* m  F, h. A2 k+ m
Display aspect ratio : 16:9
* m3 s5 W0 n2 D" |8 w% i; fFrame rate mode : Constant
9 @5 m  k6 n4 u( {7 B. K- DFrame rate : 23.976 (24000/1001) FPS: m# Y* i! f6 B4 y
Standard : NTSC
8 K4 R( p: d1 q, O  y4 VColor space : YUV
  o! P. U( }# T' ]0 f* gChroma subsampling : 4:2:0
4 y4 ~( D9 h" JBit depth : 8 bits  H6 Z2 P# q9 U
Bits/(Pixel*Frame) : 0.052
5 s( o0 W% M1 a. U2 B. F% f0 nStream size : 8.38 GiB (94%)9 R7 n0 V3 A* b4 j) {; |
Writing library : x265 2.9_elemental+1-9e0607aa5b6f:[Linux][GCC 4.8.5][64 bit] 8bit+10bit+12bit
; ^! e3 c4 y$ a& U% @! l4 HEncoding settings : cpuid=1111039 / frame-threads=2 / wpp / no-pmode / no-pme / psnr / ssim / log-level=2 / csv / csv-log-level=2 / input-csp=1 / input-res=3840x2160 / interlace=0 / total-frames=0 / level-idc=50 / high-tier=1 / uhd-bd=0 / ref=5 / no-allow-non-conformance / no-repeat-headers / annexb / no-aud / no-hrd / info / hash=0 / no-temporal-layers / no-open-gop / min-keyint=61 / keyint=120 / gop-lookahead=0 / bframes=8 / b-adapt=2 / b-pyramid / bframe-bias=0 / rc-lookahead=120 / lookahead-slices=4 / scenecut=0 / radl=0 / no-intra-refresh / ctu=64 / min-cu-size=8 / rect / amp / max-tu-size=32 / tu-inter-depth=4 / tu-intra-depth=4 / limit-tu=4 / rdoq-level=2 / dynamic-rd=0.00 / no-ssim-rd / signhide / tskip / nr-intra=100 / nr-inter=600 / no-constrained-intra / strong-intra-smoothing / max-merge=3 / limit-refs=3 / limit-modes / me=3 / subme=3 / merange=57 / temporal-mvp / weightp / weightb / no-analyze-src-pics / deblock=0:0 / no-sao / no-sao-non-deblock / rd=4 / no-early-skip / no-rskip / no-fast-intra / tskip-fast / no-cu-lossless / b-intra / no-splitrd-skip / rdpenalty=0 / psy-rd=4.00 / psy-rdoq=10.00 / no-rd-refine / no-lossless / cbqpoffs=0 / crqpoffs=0 / rc=crf / crf=25.0 / qcomp=0.60 / qpstep=1 / stats-write=0 / stats-read=0 / vbv-maxrate=15000 / vbv-bufsize=20000 / vbv-init=0.9 / crf-max=0.0 / crf-min=0.0 / ipratio=1.10 / pbratio=1.00 / aq-mode=0 / aq-strength=1.50 / no-cutree / zone-count=0 / no-strict-cbr / qg-size=32 / rc-grain / qpmax=69 / qpmin=0 / const-vbv / sar=1 / overscan=0 / videoformat=2 / range=0 / colorprim=1 / transfer=1 / colormatrix=1 / chromaloc=0 / display-window=0 / max-cll=0,0 / min-luma=0 / max-luma=255 / log2-max-poc-lsb=8 / vui-timing-info / vui-hrd-info / slices=1 / opt-qp-pps / no-opt-ref-list-length-pps / no-multi-pass-opt-rps / scenecut-bias=0.05 / no-opt-cu-delta-qp / no-aq-motion / no-hdr / no-hdr-opt / no-dhdr10-opt / no-idr-recovery-sei / analysis-reuse-level=5 / scale-factor=0 / refine-intra=0 / refine-inter=0 / refine-mv=0 / no-limit-sao / ctu-info=0 / no-lowpass-dct / refine-mv-type=0 / copy-pic=1 / max-ausize-factor=1.0 / no-dynamic-refine / no-single-sei# D4 f; J  F. V# J. V  ^, ]8 ?4 |
Default : Yes% `# I, V- E( c0 }) f! `5 \
Forced : No) u" \' Z" a* t/ V2 C& Q
Color range : Limited
* [% r8 H! @: m( OColor primaries : BT.709
2 d  g0 c9 ~! z5 k2 N/ M1 K% mTransfer characteristics : BT.709- E  {* v1 {# R! q( ~$ m: i
Matrix coefficients : BT.7092 u. m' W! |9 h

& S, N$ g0 `: r- x/ p5 }/ m0 D
' ?5 S7 x, A$ ~% I: W7 B" ?
Audio
5 c, b% f# U' m, t% x, i1 O9 V' fID : 2
7 Q' j: S# c/ x3 E, l: S! t! KFormat : E-AC-3
6 m1 S5 Z; ~+ \% sFormat/Info : Enhanced AC-3
2 |) ?! V+ \0 D1 eCommercial name : Dolby Digital Plus
) a' ^- z! d* ]2 n! iCodec ID : A_EAC3' \, _7 U+ Z! N7 F
Duration : 1 h 57 min) b5 {1 X: D$ `# M9 t: _
Bit rate mode : Constant
5 i+ N0 b/ T3 |7 \Bit rate : 640 kb/s
- X* f1 o2 T: s4 j4 sChannel(s) : 6 channels
3 _& j0 `: X$ u: |, Q( CChannel layout : L R C LFE Ls Rs
# r4 g/ J1 o3 H/ o/ y# c9 dSampling rate : 48.0 kHz
8 v; s' q5 ~7 x/ `7 E, zFrame rate : 31.250 FPS (1536 SPF)
* ]* `% Z; X9 Q0 G. `4 wCompression mode : Lossy' M" D2 I2 x. {- i7 T
Stream size : 536 MiB (6%)
6 q% m& @/ e% @  A  V! ]8 fTitle : English
8 i: p. ^% ?  J( |* d7 TLanguage : English
- ~6 E' q5 d8 y: U5 TService kind : Complete Main
2 F* x+ w( c0 oDefault : No9 G; ]5 w' G2 j4 F0 ^$ [
Forced : No
6 T: i) ]7 B! Z7 ~% ]
* U9 H1 b, ?: v  m& X; z  K# O
蓝光高清网提示您  点击下方附件名称  马上开始下载
5 g6 i# n% u+ s( [, V' b
2 w( @) I$ C3 k  _5 h* Y' b# r

. y- \/ ~5 s4 m4 ~2 K异见者4K.The.Dissident.2020.2160p.WEB-DL.x265.8bit.SDR.DDP5.1-4K电影下载# }; S- O! i8 T  c3 l

$ ^; z7 Y/ l+ n$ ?9 ?4 \, _异见者4K.The.Dissident.2020.2160p.WEB-DL.x265.8bit.SDR.DDP5.1【4K SDR 8.91 GB】
* f& d3 P' Q3 _  _5 |: G 异见者4K.The.Dissident.2020.2160p.WEB-DL.x265.8bit.SDR.DDP5.1-iKA.torrent (文件大小:45.07 KB)
加入蓝光高清网VIP会员  无限制下载本站所有资源---点这里

资源下载、资源播放、字幕使用、无法下载等常见问题---点这里
回复

使用道具 举报

精彩评论1

磐石手机认证 发表于 2021-4-7 18:05:00 | 显示全部楼层
楼主辛苦了
回复 支持 反对

使用道具 举报

您需要登录后才可以回帖 登录 | 立即注册

本版积分规则

烧友之家(蓝光高清网)本站内容部分由用户自主分享和转载自互联网,转载目的在于传递更多信息,并不代表本网赞同其观点和对其真实性负责。 如有侵权、违反国家法律政策行为,请联系我们,我们会第一时间及时清除和处理!
蓝光高清网 综合资讯平台
关注我们
  • 官方微信公众号
  • 扫码下载官方APP

X3.4 Licensed© 2001-2013 蓝光高清网 烧友之家APP |网站地图