游客您好
第三方账号登陆
  • 点击联系客服

    在线时间:9:00-18:00

    客服QQ

    1371333023

    电子邮件

    lanniao@1080pro.net
  • 烧友之家APP

    随时掌握烧友资讯

  • 扫描二维码

    关注微信公众号

推荐阅读
蓝鸟
未知星球 | 未知职业
  • 关注0
  • 粉丝2
  • 帖子93845
精选帖子
开启左侧

克隆人 4K.Replicas.2018.2160p.WEB-DL.x265.10bit.HDR.DTS-HD.MA.5.1-4k电影下载—13.78 GB

[复制链接]
蓝鸟 发表于 2021-4-3 12:48:59 | 显示全部楼层 |阅读模式 打印 上一主题 下一主题
克隆人
上映时间:2018年
类型:科幻 犯罪 悬疑 
地区:美国 
导演:杰弗利·纳赫马诺夫
主演:基努·里维斯 / 爱丽丝·伊芙 / 艾米丽·阿琳·林德 / 托马斯·米德蒂奇 / 恩杰伊·安东尼
画质标准:4K HDR  封装音轨:DTS-HD.MA 5.1 
豆瓣评分:6.1分

加入蓝光高清网,轻松下载最新4k资源

您需要 登录 才可以下载或查看,没有帐号?立即注册

x
简       介; t5 p; n3 v" y
& e& R! @: M4 R
  供职于某生物科技公司的生物化学科学家威廉·福斯特(基努·里维斯 Keanu Reeves 饰),长久以来一直致力于克隆技术的研究。虽然科研的道路上困难重重,但他距离最终的成功似乎只有一步之遥。谁知就在关键时刻,一场车祸摧毁了他的幸福人生。车祸中,妻子莫娜(爱丽丝·伊芙 Alice Eve 饰)和三个可爱的孩子命归黄泉,这令威廉痛不欲生。然而,科学家的本能又促使他迅速冷静下来。他找到工作中的伙伴埃德·惠特尔(托马斯·米德蒂奇 Thomas Middleditch 饰)帮忙,决定利用自己的研究“复活”家人。
( V& ?) U$ [# e: q+ y1 s6 q0 b) E  爱让人疯狂,让人不惜一切代价与全世界对抗…

8 `3 J5 r/ Q3 u' `. u  q; ]! w1 o# a, D' U$ {) N

+ v8 g: w+ M$ y$ ]4 M; F1 i影片参数
, d. v" w7 V# E/ U* d! ]
捍卫生死线(台) / 复制品 / 复生人 / 复制人/克隆人4K.Replicas.2018.2160p.WEB-DL.x265.10bit.HDR.DTS-HD.MA.5.1-4k电影信息2 J# a  v6 J& \7 V7 K
Video4 c& F' b% |; Q. \+ k
ID : 1: J  U, q, b! ?0 ]  |. T! @2 ]
Format : HEVC
2 H$ d. W' {; I  e0 YFormat/Info : High Efficiency Video Coding
7 c. ~' g6 c& j8 g  `) JFormat profile : Main 10@L5@Main
* f8 ~7 a( ]( n  z' j, v* WHDR format : SMPTE ST 2086, HDR10 compatible# o+ S6 M) ^7 B0 ~
Codec ID : V_MPEGH/ISO/HEVC
+ c- t; b; i8 ~5 UDuration : 1 h 47 min
+ k( d' q$ n3 GBit rate : 14.6 Mb/s
8 M( g9 C+ ^8 `/ B. Y0 y. WWidth : 3 840 pixels
1 |2 J7 V6 d1 Q# n$ fHeight : 2 160 pixels( i5 b! D0 a" q7 I: n2 b; Y4 `
Display aspect ratio : 16:9
  P8 S5 E3 h! [" }' }) k" P+ U$ OFrame rate mode : Constant; W! [6 F/ P( a1 C! o
Frame rate : 23.976 (24000/1001) FPS
' w+ g- H1 M- vOriginal frame rate : 23.976 (23976/1000) FPS* I: I& C5 M1 Q3 l1 c8 s/ U
Color space : YUV+ z' a+ F# D2 L) g$ w: U8 a
Chroma subsampling : 4:2:0 (Type 2)
/ _0 _6 |+ g6 g, V  @) {$ ABit depth : 10 bits
3 M! r1 w1 V( H8 @4 u+ E5 G3 TBits/(Pixel*Frame) : 0.073: t& Y" U1 }7 _
Stream size : 11.0 GiB (80%); g9 a- y; t2 K, z% U* ?. w
Writing library : x265 3.0:[Linux][GCC 4.8.5][64 bit] 10bit8 X+ {+ [5 l5 K) O- L0 V$ _
Encoding settings : cpuid=1111039 / frame-threads=6 / wpp / no-pmode / no-pme / no-psnr / no-ssim / log-level=2 / input-csp=1 / input-res=3840x2160 / interlace=0 / total-frames=0 / level-idc=50 / high-tier=1 / uhd-bd=0 / ref=3 / no-allow-non-conformance / repeat-headers / annexb / no-aud / no-hrd / info / hash=0 / no-temporal-layers / no-open-gop / min-keyint=48 / keyint=48 / gop-lookahead=0 / bframes=4 / b-adapt=2 / b-pyramid / bframe-bias=0 / rc-lookahead=48 / lookahead-slices=4 / scenecut=40 / radl=0 / no-splice / no-intra-refresh / ctu=64 / min-cu-size=8 / rect / no-amp / max-tu-size=32 / tu-inter-depth=1 / tu-intra-depth=1 / limit-tu=0 / rdoq-level=2 / dynamic-rd=0.00 / no-ssim-rd / signhide / no-tskip / nr-intra=0 / nr-inter=0 / no-constrained-intra / strong-intra-smoothing / max-merge=3 / limit-refs=3 / limit-modes / me=2 / subme=3 / merange=57 / temporal-mvp / weightp / no-weightb / no-analyze-src-pics / deblock=0:0 / no-sao / no-sao-non-deblock / rd=4 / no-early-skip / no-rskip / no-fast-intra / no-tskip-fast / no-cu-lossless / no-b-intra / no-splitrd-skip / rdpenalty=0 / psy-rd=4.00 / psy-rdoq=10.00 / no-rd-refine / no-lossless / cbqpoffs=0 / crqpoffs=0 / rc=abr / bitrate=15000 / qcomp=0.60 / qpstep=1 / stats-write=0 / stats-read=0 / vbv-maxrate=22500 / vbv-bufsize=22500 / vbv-init=0.9 / ipratio=1.10 / pbratio=1.00 / aq-mode=0 / aq-strength=0.00 / no-cutree / zone-count=0 / no-strict-cbr / qg-size=32 / rc-grain / qpmax=69 / qpmin=0 / const-vbv / sar=1 / overscan=0 / videoformat=5 / range=0 / colorprim=9 / transfer=16 / colormatrix=9 / chromaloc=1 / chromaloc-top=2 / chromaloc-bottom=2 / display-window=0 / master-display=G(13250,34500)B(7500,3000)R(34000,16000)WP(15635,16450)L(10000000,10) / max-cll=1001,417 / min-luma=0 / max-luma=1023 / log2-max-poc-lsb=8 / vui-timing-info / vui-hrd-info / slices=1 / no-opt-qp-pps / no-opt-ref-list-length-pps / no-multi-pass-opt-rps / scenecut-bias=0.05 / no-opt-cu-delta-qp / no-aq-motion / hdr / no-hdr-opt / no-dhdr10-opt / no-idr-recovery-sei / analysis-reuse-level=5 / scale-factor=0 / refine-intra=0 / refine-inter=0 / refine-mv=0 / refine-ctu-distortion=0 / no-limit-sao / ctu-info=0 / no-lowpass-dct / refine-analysis-type=0 / copy-pic=1 / max-ausize-factor=1.0 / no-dynamic-refine / no-single-sei / no-hevc-aq / qp-adaptation-range=1.00
4 S2 \* B% {5 b7 i' m9 U$ L! G7 Z. q6 rDefault : Yes1 s, T& i  M) d; R4 m" Z4 x; v
Forced : No( s' Y. v5 B% ^4 A4 T9 P1 q
Color range : Limited
1 x$ M2 I- m4 {- p" H: o) `; |Color primaries : BT.2020
1 x5 D- J3 a+ s1 hTransfer characteristics : PQ
5 I# N2 y$ ^: K  l7 BMatrix coefficients : BT.2020 non-constant1 F6 M5 Y& z# x$ U- Y7 K2 i
Mastering display color primaries : Display P32 v! u! \" \1 @% l
Mastering display luminance : min: 0.0010 cd/m2, max: 1000 cd/m28 ~6 ]$ U' h9 Q; L8 c# p& d& p0 ^
Maximum Content Light Level : 1001 cd/m2
! }; r" @, q7 d' s, f  D, i0 dMaximum Frame-Average Light Level : 417 cd/m2' M9 g& N; `+ w( P5 b1 Z
& t, U# _! t* _0 D* u

  e) ?; |4 _9 c, yAudio #1, ^: N8 k0 z  w8 Y+ Q
ID : 2% f7 k& q7 S7 ~9 |  F
ID in the original source medium : 4352 (0x1100)" [! |5 Q. s; Q& w0 _
Format : DTS XLL
3 q" k# @( m% \% _( L9 OFormat/Info : Digital Theater Systems: W8 e+ Y  f( \$ y2 c
Commercial name : DTS-HD Master Audio' Q% o( _) B. z( r4 r
Codec ID : A_DTS
% P% V! G3 ?# H1 A4 eDuration : 1 h 47 min* [& m# N2 ]$ Z% I" t* r( ~* G- N
Bit rate mode : Variable
4 @- o+ E- {$ u9 jBit rate : 3 417 kb/s3 y& J' i' _: j0 r
Channel(s) : 6 channels
7 k* a: t8 v9 Q  xChannel layout : C L R Ls Rs LFE
, x3 z; Z: P0 j( I* @0 wSampling rate : 48.0 kHz
- P$ J! Y1 }% g/ V8 NFrame rate : 93.750 FPS (512 SPF)
" ^& c5 x5 P; Z) o4 Q6 _8 eBit depth : 24 bits% J/ Y  k2 B/ F
Compression mode : Lossless, d; [" U4 a  q$ L. b( m
Stream size : 2.58 GiB (19%)
. b8 z' T' W8 n# p/ F5 B! X! P- wTitle : DTS-HD MA 5.1
9 J8 N/ _3 R+ nLanguage : English3 |2 V+ j7 X' M4 n
Default : Yes% J9 Z$ h7 e) C
Forced : No
! g: n. L% \+ t9 q! ~8 z7 d& U$ q) fOriginal source medium : Blu-ray
3 h3 F$ h7 p% y; I7 B! x! Y1 N* c* F0 W
0 s) n) P; u+ w2 p
Audio #2) Y% j* x. |9 j. r
ID : 3$ W, b4 V! V6 c+ }6 m9 z& o
Format : E-AC-3
( {/ u& I4 \, Q: g& p  u1 y" hFormat/Info : Enhanced AC-3+ g( B$ X4 m) y5 W7 B" {% e# A6 y) H7 h
Commercial name : Dolby Digital Plus
" C! w$ Z& v) i) o4 DCodec ID : A_EAC34 J. G) b& h& \! f1 D/ Z
Duration : 1 h 47 min
0 U6 d' k  \7 h% W* j# hBit rate mode : Constant; U3 w' [9 ~, Z" Q) j* `
Bit rate : 256 kb/s8 k6 @$ J1 o  T4 f6 ^9 V$ A) m# d8 w
Channel(s) : 6 channels
4 k) G3 Z4 F3 x+ `4 jChannel layout : L R C LFE Ls Rs9 k6 v* z/ ?; Z* h' M3 [
Sampling rate : 48.0 kHz
, n: m* {7 i& s1 S+ FFrame rate : 31.250 FPS (1536 SPF)
1 K1 l8 Y: R) b& O, E3 B! l  `( r1 mCompression mode : Lossy% g" i9 V5 P; m+ l2 z
Stream size : 198 MiB (1%)* R. i6 K, \- N* b
Title : DDP 5.1$ z, U6 C# V3 i: S7 S. c
Language : English/ L7 d: X+ p! L4 ]& T
Service kind : Complete Main
2 h7 \9 T2 ]. S0 K: G$ UDefault : No3 k4 Y7 F1 e( R7 k& t& k' N, H) E
Forced : No
0 F! B. h5 F- G. S; }6 w
蓝光高清网提示您  点击下方附件名称  马上开始下载. V0 ~7 m! L% R7 f+ f3 V4 I
, o5 I: H1 U4 T1 n7 r, V
$ [; x8 a8 f& Q  n3 M& {0 K% D
捍卫生死线(台) / 复制品 / 复生人 / 复制人/克隆人4K.Replicas.2018.2160p.WEB-DL.x265.10bit.HDR.DTS-HD.MA.5.1-4K电影下载0 H( b0 F: U( V/ |7 t
9 m+ E# q' S7 J$ }- d0 c0 t
克隆人4K.Replicas.2018.2160p.WEB-DL.x265.10bit.HDR.DTS-HD.MA.5.1【4K HDR 13.78 GB】$ [- @& |' p' P9 @
克隆人4K.Replicas.2018.2160p.WEB-DL.x265.10bit.HDR.DTS-HD.MA.5.1-SWTYBLZ.torrent (文件大小:69.47 KB)
加入蓝光高清网VIP会员  无限制下载本站所有资源---点这里

资源下载、资源播放、字幕使用、无法下载等常见问题---点这里
回复

使用道具 举报

精彩评论1

守ZAAS手机认证 发表于 7 天前 | 显示全部楼层
为什么原盘才13G?应该不是原盘吧?
回复 支持 反对

使用道具 举报

您需要登录后才可以回帖 登录 | 立即注册

本版积分规则

烧友之家(蓝光高清网)本站内容部分由用户自主分享和转载自互联网,转载目的在于传递更多信息,并不代表本网赞同其观点和对其真实性负责。 如有侵权、违反国家法律政策行为,请联系我们,我们会第一时间及时清除和处理!
蓝光高清网 综合资讯平台
关注我们
  • 官方微信公众号
  • 扫码下载官方APP

X3.4 Licensed© 2001-2013 蓝光高清网 烧友之家APP |网站地图