游客您好
第三方账号登陆
  • 点击联系客服

    在线时间:9:00-18:00

    客服QQ

    1371333023

    电子邮件

    lanniao@1080pro.net
  • 烧友之家APP

    随时掌握烧友资讯

  • 扫描二维码

    关注微信公众号

推荐阅读
蓝鸟
未知星球 | 未知职业
  • 关注0
  • 粉丝2
  • 帖子93845
精选帖子
开启左侧

黑夜造访 4K.It.Comes.at.Night.2017.2160p.WEB-DL.x265.10bit.HDR.DTS-HD.MA.5.1-4k电影下载—11.91 GB

[复制链接]
蓝鸟 发表于 2021-4-3 12:52:48 | 显示全部楼层 |阅读模式 打印 上一主题 下一主题
黑夜造访
上映时间:2017年
类型:恐怖 悬疑 
地区:美国 
导演:特里·爱德华·沙尔茨
主演:乔尔·埃哲顿 / 克里斯托弗·阿波特 / 卡门·艾乔戈 / 丽莉·吉欧 / 小凯文·哈里森
画质标准:4K HDR  封装音轨:DTS-HD.MA 5.1 
豆瓣评分:6.0分

加入蓝光高清网,轻松下载最新4k资源

您需要 登录 才可以下载或查看,没有帐号?立即注册

x
简       介
" ]7 d3 d4 |# W) N6 z1 }" U. O' ^7 q( f& P$ N* @
  故事发生在末日,病毒肆虐,凡是被感染的人都将被焚化,保罗一家人小心翼翼生活在森林里,突然有一天一个不速之客的造访,让他们的生活天翻地覆....
6 C% G/ A$ K3 q7 V4 u) u" r/ h1 A1 i+ V
1 \5 y& K6 j: W5 ?  R8 F
影片参数$ ~, K6 q$ ?& b" @6 f
它在黑夜到访(台)/黑夜造访4K.It.Comes.at.Night.2017.2160p.WEB-DL.x265.10bit.HDR.DTS-HD.MA.5.1-4k电影信息
* r2 ]% _* w$ Z& }- G/ _% p% g( |Video2 B1 c/ ~& J0 T6 x4 p, f
ID : 12 N3 o' q0 w) R! L, x" Z: A) @
Format : HEVC
' A' H7 {/ p! q! W7 iFormat/Info : High Efficiency Video Coding  l1 H8 _4 [3 \- |# G! `7 O- M( k
Format profile : Main 10@L5@Main- ~' x. M/ [% a& P2 _, _% G
HDR format : SMPTE ST 2086, HDR10 compatible9 S2 N* h1 q" x8 _- z' A
Codec ID : V_MPEGH/ISO/HEVC7 M2 \' H+ n  ]- Q
Duration : 1 h 31 min
9 v) p" f; `( p( m3 a, z+ [/ GBit rate : 15.0 Mb/s( x; L6 @1 E5 i% Y
Width : 3 840 pixels( M+ |# n( w5 j1 ^# H: j) w
Height : 2 160 pixels
* ?2 g& i! {& r/ K6 t" IDisplay aspect ratio : 16:9
- k; N/ X. B/ J5 h9 rFrame rate mode : Constant! c2 u: M- ~9 I  k
Frame rate : 24.000 FPS
* K3 i, q) T$ z6 p. H5 V3 z. _7 S' t8 wColor space : YUV
# |: L% ]1 [: g1 D2 ?  N) VChroma subsampling : 4:2:0 (Type 2)+ j4 w9 ^, Z4 k9 D6 ~* f9 D
Bit depth : 10 bits; Z* ?6 `" n! y, Q
Bits/(Pixel*Frame) : 0.075
8 _8 K! V" ?! WStream size : 9.57 GiB (80%)
* i4 [+ p% d# w- B" v9 wWriting library : x265 3.0:[Linux][GCC 4.8.5][64 bit] 10bit
6 ^$ p2 ?8 G8 k" pEncoding settings : cpuid=1111039 / frame-threads=6 / wpp / no-pmode / no-pme / no-psnr / no-ssim / log-level=2 / input-csp=1 / input-res=3840x2160 / interlace=0 / total-frames=0 / level-idc=50 / high-tier=1 / uhd-bd=0 / ref=3 / no-allow-non-conformance / repeat-headers / annexb / no-aud / no-hrd / info / hash=0 / no-temporal-layers / no-open-gop / min-keyint=48 / keyint=48 / gop-lookahead=0 / bframes=4 / b-adapt=2 / b-pyramid / bframe-bias=0 / rc-lookahead=48 / lookahead-slices=4 / scenecut=40 / radl=0 / no-splice / no-intra-refresh / ctu=64 / min-cu-size=8 / rect / no-amp / max-tu-size=32 / tu-inter-depth=1 / tu-intra-depth=1 / limit-tu=0 / rdoq-level=2 / dynamic-rd=0.00 / no-ssim-rd / signhide / no-tskip / nr-intra=0 / nr-inter=0 / no-constrained-intra / strong-intra-smoothing / max-merge=3 / limit-refs=3 / limit-modes / me=2 / subme=3 / merange=57 / temporal-mvp / weightp / no-weightb / no-analyze-src-pics / deblock=0:0 / no-sao / no-sao-non-deblock / rd=4 / no-early-skip / no-rskip / no-fast-intra / no-tskip-fast / no-cu-lossless / no-b-intra / no-splitrd-skip / rdpenalty=0 / psy-rd=4.00 / psy-rdoq=10.00 / no-rd-refine / no-lossless / cbqpoffs=0 / crqpoffs=0 / rc=abr / bitrate=15000 / qcomp=0.60 / qpstep=1 / stats-write=0 / stats-read=0 / vbv-maxrate=22500 / vbv-bufsize=22500 / vbv-init=0.9 / ipratio=1.10 / pbratio=1.00 / aq-mode=0 / aq-strength=0.00 / no-cutree / zone-count=0 / no-strict-cbr / qg-size=32 / rc-grain / qpmax=69 / qpmin=0 / const-vbv / sar=1 / overscan=0 / videoformat=5 / range=0 / colorprim=9 / transfer=16 / colormatrix=9 / chromaloc=1 / chromaloc-top=2 / chromaloc-bottom=2 / display-window=0 / master-display=G(8500,39850)B(6550,2300)R(35400,14600)WP(15635,16450)L(40000000,10) / max-cll=2586,324 / min-luma=0 / max-luma=1023 / log2-max-poc-lsb=8 / vui-timing-info / vui-hrd-info / slices=1 / no-opt-qp-pps / no-opt-ref-list-length-pps / no-multi-pass-opt-rps / scenecut-bias=0.05 / no-opt-cu-delta-qp / no-aq-motion / hdr / no-hdr-opt / no-dhdr10-opt / no-idr-recovery-sei / analysis-reuse-level=5 / scale-factor=0 / refine-intra=0 / refine-inter=0 / refine-mv=0 / refine-ctu-distortion=0 / no-limit-sao / ctu-info=0 / no-lowpass-dct / refine-analysis-type=0 / copy-pic=1 / max-ausize-factor=1.0 / no-dynamic-refine / no-single-sei / no-hevc-aq / qp-adaptation-range=1.00! W1 z# }$ g2 z8 L
Default : Yes9 t* n; F' N0 `# y( v
Forced : No
0 H! h$ r! i1 m9 o# m$ TColor range : Limited, o4 U! a/ d9 I0 U8 K! h
Color primaries : BT.2020
! t; K2 c/ `7 }0 R4 t" qTransfer characteristics : PQ3 u2 a1 D) K9 I# }' w  Q, h& y6 M
Matrix coefficients : BT.2020 non-constant  a2 W- M4 U7 p
Mastering display color primaries : BT.2020
2 |1 L: n, M1 XMastering display luminance : min: 0.0010 cd/m2, max: 4000 cd/m2. G* v% ?6 ~6 {7 o+ d
Maximum Content Light Level : 2586 cd/m27 a6 G7 U! n& e  e
Maximum Frame-Average Light Level : 324 cd/m2
# ?3 [7 ~+ z' [9 p7 c- @
, E  K' q3 Z: ^( N
0 T& d4 t6 ?  R; [' ?6 n
Audio #16 h; n  }7 H! B* v' H; u$ y" J
ID : 2
/ y' T& C; f. a8 ^6 I5 R* mFormat : DTS XLL
6 [$ O4 Q% h, t" qFormat/Info : Digital Theater Systems
. V2 Q5 K0 B9 y9 e% u/ x% \Commercial name : DTS-HD Master Audio
" `" \3 F/ ?' ~7 f) N( oCodec ID : A_DTS+ {' s% N9 v( O1 D; C# T* W% S0 w
Duration : 1 h 31 min
. |; N( e' z  d# |Bit rate mode : Variable
2 D% b" w4 q* P* ]! o6 F% T) e- P8 bBit rate : 3 390 kb/s
- Z5 j7 |; W  ~* d% n1 R8 q4 \9 [Channel(s) : 6 channels
. o; O( \- r: D5 m: R1 |Channel layout : C L R Ls Rs LFE. J+ ?* H) v8 \2 v8 x
Sampling rate : 48.0 kHz
6 A- X( f; f9 `: A1 {# ~$ fFrame rate : 93.750 FPS (512 SPF)$ M! c( Q6 A% F. E3 w
Bit depth : 24 bits1 p! y% o) N) K5 S
Compression mode : Lossless
, f7 `$ u$ R7 t# UStream size : 2.17 GiB (18%)
, Z8 ?2 W2 e# J) e, q! X# eTitle : DTS-HD MA 5.1) s; B( j- t1 a6 h% `
Language : English
5 ?$ k$ i; h6 a! `; y8 a) y; N: WDefault : Yes
2 c- ~& ]# L; _Forced : No7 @2 i# R7 @5 Y+ ], g) L6 x

* q% W  _% i$ s: z, D8 M- }+ \% V

: W% G9 _5 S$ QAudio #25 i6 J, N- P7 J3 d& |
ID : 3
2 p  Y( C' O8 M3 q* PFormat : E-AC-3
3 E: e! g  s2 a% T3 MFormat/Info : Enhanced AC-3: D" A) l) ?. I" z6 f) L6 c' Y
Commercial name : Dolby Digital Plus
% [7 ^8 d" a3 z. {  F! g- JCodec ID : A_EAC3
, V  r3 ~. ?# b4 o( gDuration : 1 h 31 min
6 i  K* M( l/ K+ }: f5 O4 d: JBit rate mode : Constant
2 u( T, u/ q- m% d/ X% U7 ?Bit rate : 256 kb/s3 p6 X8 S5 p5 J& m3 C% e  \$ c/ o
Channel(s) : 6 channels
! x9 z/ C, @' V9 ~Channel layout : L R C LFE Ls Rs
) Y  J3 Q+ @# K8 P0 Z1 YSampling rate : 48.0 kHz$ V' h9 L: A  n: v
Frame rate : 31.250 FPS (1536 SPF)' O: ]! O$ Q  [# z0 X
Compression mode : Lossy
% W+ D7 U# K$ N$ A, ~7 XStream size : 168 MiB (1%)
$ d( K3 T! ~. ^, T; \9 G! ATitle : DDP 5.1
6 ]+ I3 J  a$ o- TLanguage : English
% N9 ~+ L8 _4 @. b7 G( ~7 U$ V6 \Service kind : Complete Main
' y" D! ~, Y* Q+ {& k4 M7 DDefault : No
0 e$ h, t. ~4 d# G" n8 LForced : No1 e* V8 e) j. J+ k
3 `) d, a9 q+ V, ]

# {* [# p* _& Y4 e1 g! c1 ]9 [8 SText
4 j; x7 Y2 X2 d7 V; \: PID : 4
* x9 ?5 K, U* \, Y% Z$ F" q5 b5 JFormat : UTF-8$ N7 \( m9 B# J$ [. E; g9 E
Codec ID : S_TEXT/UTF8
( q5 s& L4 F6 OCodec ID/Info : UTF-8 Plain Text8 O, F; }' f; d+ Y" I9 v
Duration : 1 h 27 min' A# Z. T, l! y" F; ?
Bit rate : 45 b/s6 b+ F, ~4 e  ~; j2 J% U% U
Count of elements : 1207; O+ P6 E0 d0 {$ [8 G, r
Stream size : 29.0 KiB (0%)
" G) @6 k- k. ~7 A1 J# b: |0 XTitle : SRT
) ~  ^+ k6 t1 P& t  ?3 t& pLanguage : English. Q  l8 h, L9 C2 L- m# G
Default : Yes
% z0 u* X' V0 R! {; l# K7 w: GForced : No

+ D. g+ ]' y. a, ]  c4 C7 M- t' M! l2 Z2 E- A
蓝光高清网提示您  点击下方附件名称  马上开始下载
, p/ g3 p2 A4 F, o4 {# l' c! \+ X- C7 `# h( {' N+ O! {4 x

9 t# i3 F* t2 n1 C它在黑夜到访(台)/黑夜造访4K.It.Comes.at.Night.2017.2160p.WEB-DL.x265.10bit.HDR.DTS-HD.MA.5.1-4k电影下载: y+ _+ ]3 I* {7 w8 ?

# Q% u6 H: U5 V3 G黑夜造访4K.It.Comes.at.Night.2017.2160p.WEB-DL.x265.10bit.HDR.DTS-HD.MA.5.1【4K HDR 11.91 GB】# I* W/ |( j/ L/ N, F3 [% a
黑夜造访4K.It.Comes.at.Night.2017.2160p.WEB-DL.x265.10bit.HDR.DTS-HD.MA.5.torrent (文件大小:60.1 KB)
加入蓝光高清网VIP会员  无限制下载本站所有资源---点这里

资源下载、资源播放、字幕使用、无法下载等常见问题---点这里
回复

使用道具 举报

精彩评论1

bengoben手机认证 发表于 7 天前 | 显示全部楼层
谢谢楼主分享
回复 支持 反对

使用道具 举报

您需要登录后才可以回帖 登录 | 立即注册

本版积分规则

烧友之家(蓝光高清网)本站内容部分由用户自主分享和转载自互联网,转载目的在于传递更多信息,并不代表本网赞同其观点和对其真实性负责。 如有侵权、违反国家法律政策行为,请联系我们,我们会第一时间及时清除和处理!
蓝光高清网 综合资讯平台
关注我们
  • 官方微信公众号
  • 扫码下载官方APP

X3.4 Licensed© 2001-2013 蓝光高清网 烧友之家APP |网站地图