游客您好
第三方账号登陆
  • 点击联系客服

    在线时间:9:00-18:00

    客服QQ

    1371333023

    电子邮件

    lanniao@1080pro.net
  • 烧友之家APP

    随时掌握烧友资讯

  • 扫描二维码

    关注微信公众号

推荐阅读
蓝鸟
未知星球 | 未知职业
  • 关注0
  • 粉丝2
  • 帖子93845
精选帖子
开启左侧

先知游戏 4K.The.Prophets.Game.2000.2160p.BluRay.x265.10bit.SDR.DTS-HD.MA.5.1-4k电影下载—26.94 GB

[复制链接]
蓝鸟 发表于 2021-4-4 09:13:49 | 显示全部楼层 |阅读模式 打印 上一主题 下一主题
先知游戏
上映时间:2000年
类型:惊悚 
地区:美国 
导演:David Worth
主演:丹尼斯·霍珀 / 斯蒂芬尼·齐姆巴丽斯特 / 桑德拉·洛克 / 香侬·惠利
画质标准:4K SDR  封装音轨:DTS-HD.MA 5.1 
豆瓣评分:4.9分

加入蓝光高清网,轻松下载最新4k资源

您需要 登录 才可以下载或查看,没有帐号?立即注册

x
简       介% t+ n; V" W" q9 `

7 c4 ?# b  h- y

) W  j$ ^3 \& o) O1 ~       西雅图凶杀案侦探(丹尼斯·霍珀)正在追捕一个扭曲的连环杀手。他可以在杀手的游戏夺走另一个受害者之前解决它吗?
. R5 E  B  N- K2 y: ^. A) F5 Y( H( u- ~, H/ S0 W2 W

# f9 Y" _& Z9 `$ }" k& U影片参数
  T! t: t0 ]6 t- T/ R' ]
先知游戏4K.The.Prophets.Game.2000.2160p.BluRay.x265.10bit.SDR.DTS-HD.MA.5.1-4k电影信息
* m8 q+ S5 g% n: EVideo
6 r3 Z& x4 X% h0 U1 qID : 1
9 u0 X! f& G; i, G% b) X! iFormat : HEVC
. Z( O: Q7 P6 m  [: eFormat/Info : High Efficiency Video Coding
1 t- y- I" |) nFormat profile : Main 10@L5.1@High
! K* l# `; n5 `1 S1 E& h/ ICodec ID : V_MPEGH/ISO/HEVC
3 x6 z( e: q2 Q8 yDuration : 1 h 48 min5 `7 o" V0 q5 h3 {/ I# U
Bit rate : 32.4 Mb/s2 o% U( T9 U1 C! u4 O) G
Width : 3 840 pixels+ \. V# |7 U* V" I, x* c
Height : 2 076 pixels
% o# ?6 u* R+ n0 d$ A1 h% W5 [Display aspect ratio : 1.85:1
9 i7 @' r8 Q& d. H9 o# z6 m0 _3 gFrame rate mode : Constant
6 h3 z: `6 z( I: m# v' RFrame rate : 23.976 (24000/1001) FPS
6 H# H% T9 Y8 h* `1 B: eColor space : YUV$ |' m* r+ C# j; R
Chroma subsampling : 4:2:0
% Z- }! m- z' }+ H9 KBit depth : 10 bits" W( e7 I( F8 F8 j7 n
Bits/(Pixel*Frame) : 0.170- d9 e( Z; O1 a& Y  }6 ^% t
Stream size : 24.5 GiB (94%)2 i6 R. ~; f; _. L
Writing library : x265 3.4+36-5239276dd:[Windows][MSVC 1900][64 bit] 10bit, W; |7 y7 {' F+ S9 V
Encoding settings : cpuid=1111039 / frame-threads=6 / numa-pools=32 / wpp / no-pmode / no-pme / no-psnr / no-ssim / log-level=2 / input-csp=1 / input-res=3840x2076 / interlace=0 / total-frames=155619 / level-idc=51 / high-tier=1 / uhd-bd=0 / ref=4 / no-allow-non-conformance / repeat-headers / annexb / aud / hrd / info / hash=0 / no-temporal-layers / no-open-gop / min-keyint=23 / keyint=250 / gop-lookahead=0 / bframes=4 / b-adapt=2 / b-pyramid / bframe-bias=0 / rc-lookahead=25 / lookahead-slices=4 / scenecut=40 / hist-scenecut=0 / radl=0 / no-splice / no-intra-refresh / ctu=64 / min-cu-size=8 / rect / no-amp / max-tu-size=32 / tu-inter-depth=1 / tu-intra-depth=1 / limit-tu=0 / rdoq-level=2 / dynamic-rd=0.00 / no-ssim-rd / signhide / no-tskip / nr-intra=0 / nr-inter=0 / no-constrained-intra / no-strong-intra-smoothing / max-merge=3 / limit-refs=3 / limit-modes / me=3 / subme=3 / merange=57 / temporal-mvp / no-frame-dup / no-hme / weightp / no-weightb / no-analyze-src-pics / deblock=-3:-3 / no-sao / no-sao-non-deblock / rd=4 / selective-sao=0 / no-early-skip / rskip / no-fast-intra / no-tskip-fast / no-cu-lossless / no-b-intra / no-splitrd-skip / rdpenalty=0 / psy-rd=2.00 / psy-rdoq=1.00 / no-rd-refine / no-lossless / cbqpoffs=0 / crqpoffs=0 / rc=crf / crf=16.6 / qcomp=0.60 / qpstep=4 / stats-write=0 / stats-read=0 / vbv-maxrate=160000 / vbv-bufsize=160000 / vbv-init=0.9 / min-vbv-fullness=50.0 / max-vbv-fullness=80.0 / crf-max=0.0 / crf-min=0.0 / ipratio=1.40 / pbratio=1.30 / aq-mode=2 / aq-strength=1.00 / cutree / zone-count=0 / no-strict-cbr / qg-size=32 / no-rc-grain / qpmax=69 / qpmin=0 / no-const-vbv / sar=1 / overscan=0 / videoformat=5 / range=0 / colorprim=1 / transfer=1 / colormatrix=1 / chromaloc=0 / display-window=0 / cll=0,0 / min-luma=0 / max-luma=1023 / log2-max-poc-lsb=8 / vui-timing-info / vui-hrd-info / slices=1 / opt-qp-pps / opt-ref-list-length-pps / no-multi-pass-opt-rps / scenecut-bias=0.05 / hist-threshold=0.03 / no-opt-cu-delta-qp / no-aq-motion / no-hdr10 / no-hdr10-opt / no-dhdr10-opt / no-idr-recovery-sei / analysis-reuse-level=0 / analysis-save-reuse-level=0 / analysis-load-reuse-level=0 / scale-factor=0 / refine-intra=0 / refine-inter=0 / refine-mv=1 / refine-ctu-distortion=0 / no-limit-sao / ctu-info=0 / no-lowpass-dct / refine-analysis-type=0 / copy-pic=1 / max-ausize-factor=1.0 / no-dynamic-refine / no-single-sei / no-hevc-aq / no-svt / no-field / qp-adaptation-range=1.00 / scenecut-aware-qp=0conformance-window-offsets / right=0 / bottom=0 / decoder-max-rate=0 / no-vbv-live-multi-pass
6 w' T* y, w. c' \5 U' DDefault : Yes+ O3 y1 \2 p" y  F% q- S+ E$ U' K
Forced : No
! {6 Q" G3 G# {* _/ I5 AColor range : Limited
+ }* s+ O8 m" C& l& ^9 nColor primaries : BT.709
9 b" q3 A& J9 t; D& w" G! i! g, oTransfer characteristics : BT.709$ @! w3 C# V* n, P" k) T1 X3 Z
Matrix coefficients : BT.709
! K6 U% q1 I6 E9 y% ]3 j3 b( q
2 |0 e( Z) B$ j; \3 ?8 {7 E
% T0 L, ?5 F$ O* I
Audio2 J" ]5 m( Q: z9 @3 z2 T
ID : 2, k+ l8 |/ N( p% g+ H1 H# b) |1 k: p
Format : DTS XLL
4 k" z. y8 F  p' A& V) O( B, LFormat/Info : Digital Theater Systems
7 ~, {* ~0 l; M- ^+ iCommercial name : DTS-HD Master Audio8 S: Y, z8 v: W  {  h3 a
Codec ID : A_DTS1 N) h  t; |" `0 v# E- Q* B6 {) v
Duration : 1 h 48 min
+ B2 \3 @5 n0 J" k) Q5 PBit rate mode : Variable. n9 W! ]1 A$ C7 j6 F" ?
Bit rate : 1 968 kb/s
/ J: ?; j& N" D' z$ BChannel(s) : 6 channels" ^# x( ]/ \* e7 e+ R
Channel layout : C L R Ls Rs LFE
- i8 Q, p5 S# C$ y- e% R$ ~Sampling rate : 48.0 kHz
6 e! W6 J; g; O$ ^Frame rate : 93.750 FPS (512 SPF)- O# e9 _& |4 H. Q0 m( p
Bit depth : 16 bits' J3 u+ H0 W. S/ R# F& U2 m
Compression mode : Lossless' t+ B* h! ?: B3 Q
Stream size : 1.49 GiB (6%)! y+ o# M! e& T; D  J. F
Title : Surround 5.1: b/ n0 l: m; d+ T1 Z0 V
Language : English
- [# o$ c. `# Y) ]  kDefault : Yes
2 |; _- b3 ~+ \Forced : No
1 Q1 @: P& @& R

3 C8 v. I3 e6 x1 b蓝光高清网提示您  点击下方附件名即可开始下载
, T, s3 {0 m+ N" _, e
+ O8 C" r& G, V3 I' |

( _- l' L/ e0 N3 A先知游戏4K.The.Prophets.Game.2000.2160p.BluRay.x265.10bit.SDR.DTS-HD.MA.5.1-4K电影下载2 m* G, z& a5 a4 Z
( p3 @( B; T, ^7 g- D( M

  K0 ~1 C3 _. {先知游戏4K.The.Prophets.Game.2000.2160p.BluRay.x265.10bit.SDR.DTS-HD.MA.5.1【4K  SDR 26.94GB】
% x& p$ r1 q+ \5 t
- [5 J  M* E- h. d  F. S 先知游戏4K.The.Prophets.Game.2000.2160p.BluRay.x265.10bit.SDR.DTS-HD.MA.5.torrent (文件大小:66.94 KB)
加入蓝光高清网VIP会员  无限制下载本站所有资源---点这里

资源下载、资源播放、字幕使用、无法下载等常见问题---点这里
回复

使用道具 举报

精彩评论1

南風輕起手机认证 发表于 7 天前 | 显示全部楼层
够意思。不知道能不能下载
回复 支持 反对

使用道具 举报

您需要登录后才可以回帖 登录 | 立即注册

本版积分规则

烧友之家(蓝光高清网)本站内容部分由用户自主分享和转载自互联网,转载目的在于传递更多信息,并不代表本网赞同其观点和对其真实性负责。 如有侵权、违反国家法律政策行为,请联系我们,我们会第一时间及时清除和处理!
蓝光高清网 综合资讯平台
关注我们
  • 官方微信公众号
  • 扫码下载官方APP

X3.4 Licensed© 2001-2013 蓝光高清网 烧友之家APP |网站地图