游客您好
第三方账号登陆
  • 点击联系客服

    在线时间:9:00-18:00

    客服QQ

    1371333023

    电子邮件

    lanniao@1080pro.net
  • 烧友之家APP

    随时掌握烧友资讯

  • 扫描二维码

    关注微信公众号

推荐阅读
蓝鸟
未知星球 | 未知职业
  • 关注0
  • 粉丝2
  • 帖子93845
精选帖子
开启左侧

生死狙击 4K.Shooter.2007.2160p.AMZN.WEB-DL.x265.10bit.HDR10Plus.DDP5.1-4k电影下载—13.67 GB

[复制链接]
8846 8
蓝鸟 发表于 2021-4-4 09:18:56 | 只看该作者 |只看大图 |阅读模式 打印 上一主题 下一主题
生死狙击
上映时间:
类型:动作 剧情 惊悚 
地区:美国 
导演:安东尼·福奎阿
主演:马克·沃尔伯格 / 迈克尔·佩纳 / 丹尼·格洛弗 / 凯特·玛拉 / 伊莱亚斯·科泰斯
画质标准:4K HDR  封装音轨:Dolby TrueHD 5.1 Dolby Atmos 
豆瓣评分:7.8分

加入蓝光高清网,轻松下载最新4k资源

您需要 登录 才可以下载或查看,没有帐号?立即注册

x
简       介
3 E9 i: B( \4 L
8 p0 \7 q& c- `: h  这是一部谍中谍式的电影,不过主角换成了狙击手。美国退役优秀狙击手鲍勃(马克•沃尔伯格 Mark Wahlberg 饰)正在阿肯色州享受退役后的休闲时光,不料,平地生波,他的前上司前来拜访他,希望他能接受一项新的任务――在总统街头演讲那天充当隐形狙击手暗中保护总统。虽然十万分不情愿,但禁不住上司的游说,鲍勃最终答应了。总统演讲那天,鲍勃正在仔细观察着四周情况时,突然会场遭到枪手袭击,总统身边的衣索比亚主教被杀。鲍勃被当成暗杀者遭遇警方追捕。心知成了替罪羔羊,鲍勃在身中两枪的情况下奋力逃走了。鲍勃此时唯一的出路就是找出幕后的真凶,为自己洗刷罪名。
: O4 z2 w& \4 n
( W! X4 M# Y/ f1 [0 T. O

5 E+ \: V# @0 M6 c/ X; d- \影片参数4 H9 }/ s8 D# t! r
狙击手 / 辣手枪(港) / 狙击生死线(台) / 神射手 / Double Target/生死狙击4K.Shooter.2007.2160p.AMZN.WEB-DL.x265.10bit.HDR10Plus.DDP5.1-4k电影信息
' a2 d2 r  I# @, Y0 u! K0 Q, V$ ]5 jVideo; D* s9 }, b% ]! `% B% o
ID : 1
3 f- X+ ?# }( b# l! N: zFormat : HEVC
3 ^4 K0 N, d# J4 J/ t' v" MFormat/Info : High Efficiency Video Coding
9 r3 [. n9 Y/ A9 u# D, y- }; tFormat profile : Main 10@L5@Main
( ?5 E" `) D5 nHDR format : SMPTE ST 2094 App 4, Version 1, HDR10+ Profile B compatible
6 w1 @5 y: L" Z/ xCodec ID : V_MPEGH/ISO/HEVC
% }3 `* ?& Y" {5 p" R; Z4 G9 \Duration : 2 h 5 min
0 q( {0 o1 ^3 P& Q" @4 `Bit rate : 14.9 Mb/s
7 m1 w1 Z! N  z: _Width : 3 840 pixels
3 i9 M1 R2 @1 H5 Q# Z. oHeight : 1 600 pixels
- `5 I* `% W$ b* nDisplay aspect ratio : 2.40:1
# w$ g- i0 y' }Frame rate mode : Constant
$ }4 d3 V/ D$ ~0 K0 C2 c  A" rFrame rate : 23.976 (24000/1001) FPS6 X" T. a% Y5 `, G, n' B5 A
Color space : YUV4 s6 L5 |' _, H( c+ d
Chroma subsampling : 4:2:0, D5 O+ M" c! }5 M7 h+ ^9 [
Bit depth : 10 bits
3 ^$ j: [2 R# n2 A* N, |Bits/(Pixel*Frame) : 0.1016 U' @2 f1 a; ]! m6 {' Q+ j
Stream size : 13.1 GiB (96%)
! R9 C3 {4 @. ^1 jDefault : Yes
  U# J3 w1 o( e4 s  f8 [7 CForced : No9 d: S0 Z5 ]/ B/ L8 s
Color range : Limited$ g" Z9 t' R* \: E4 l! a: I
Color primaries : BT.2020/ D# F# a/ k  X
Transfer characteristics : PQ
; a4 n% D' X3 \. \Matrix coefficients : BT.2020 non-constant
" a5 n" s( U8 M% u' {8 m# YMastering display color primaries : Display P3& |1 X' K+ p. u& V6 t+ ]' s+ M
Mastering display luminance : min: 0.0001 cd/m2, max: 1000 cd/m2
* q: W  ]! q, V+ V6 M5 QMaximum Content Light Level : 1000 cd/m2$ ]) s( ]6 f8 u; v" d
Maximum Frame-Average Light Level : 468 cd/m2
, ?7 l. y$ N& m+ o+ ?  P: J, W3 H, k
' q- Z2 u& ^. L7 }

# B2 A5 W( y/ RAudio$ T6 N- A+ R! I
ID : 2
2 U1 Q8 d  O7 W- K; r' V% Y  H* vFormat : E-AC-30 c. C; }0 c' J! Y3 v
Format/Info : Enhanced AC-35 u2 o5 S$ d. \2 t0 E+ W- e( T
Commercial name : Dolby Digital Plus
5 s+ ~& n* m: `- [, f, u& JCodec ID : A_EAC3
# {; v( |" m0 C7 T1 @7 W0 G% `9 UDuration : 2 h 5 min1 E- F0 W# p+ r3 [, x5 t( O$ r8 E; \
Bit rate mode : Constant
: H6 R5 J3 E, d3 j7 mBit rate : 640 kb/s
9 h  h; G9 z* L: ]' H2 R; |Channel(s) : 6 channels
+ P: K, e  t, Y' \6 x1 V) pChannel layout : L R C LFE Ls Rs* k& N) J% Q0 z( Z* l
Sampling rate : 48.0 kHz3 b2 a$ i8 t4 S: W1 Q
Frame rate : 31.250 FPS (1536 SPF)- D+ y# y2 z, u: a5 @* u8 ^
Compression mode : Lossy0 I8 f6 l6 E, L
Stream size : 575 MiB (4%)
3 o4 c: i6 v: P/ mTitle : DDP 5.1
. Y! P$ }. y  T5 V3 w, K) vLanguage : English, E, ?2 o2 R7 u* p  l/ z
Service kind : Complete Main+ A- L7 {2 t: w
Default : No9 ~+ {; m+ L: u% c7 C
Forced : No
% d% ~( K- t" l! x
0 Z+ ^) g1 }; H5 p
蓝光高清网提示您  点击下方附件名即可开始下载
) A% L2 ^& P3 m, ]' O& w. C) i# D, e2 b) P
9 f9 Q- q4 o$ I* S
狙击手 / 辣手枪(港) / 狙击生死线(台) / 神射手 / Double Target/生死狙击4K.Shooter.2007.2160p.AMZN.WEB-DL.x265.10bit.HDR10Plus.DDP5.1-4K电影下载
2 V' d" O# ?8 ?0 O1 B6 z3 Y/ C8 X6 D  c3 x) J& Q/ r. O0 U
生死狙击4K.Shooter.2007.2160p.AMZN.WEB-DL.x265.10bit.HDR10Plus.DDP5.1【4K  HDR 13.67 GB】
1 o' r+ `6 e+ Y0 n  m 生死狙击4K.Shooter.2007.2160p.AMZN.WEB-DL.x265.10bit.HDR10Plus.DDP5.1-SWT.torrent (文件大小:68.91 KB) 5 Y$ V8 a* {! F9 v' X3 O

+ _+ Z) K1 e+ o0 ?) l4 n
加入蓝光高清网VIP会员  无限制下载本站所有资源---点这里

资源下载、资源播放、字幕使用、无法下载等常见问题---点这里
回复

使用道具 举报

精彩评论8

跳转到指定楼层
沙发
flysu27手机认证 发表于 2021-4-5 22:47:11 | 只看该作者
感谢楼主分享!( }" y! w: y( h1 @; N' w9 G; p
回复 支持 反对

使用道具 举报

板凳
yunyan手机认证 发表于 2021-4-6 00:54:56 | 只看该作者
经典狙击电影,必下,感谢分享
回复 支持 反对

使用道具 举报

地板
@时光手机认证 发表于 2021-4-6 08:39:39 | 只看该作者
6666666666666
回复 支持 反对

使用道具 举报

5#
守ZAAS手机认证 发表于 7 天前 | 只看该作者
感谢分享经典影片
回复 支持 反对

使用道具 举报

6#
jmlove007手机认证 发表于 7 天前 | 只看该作者
谢谢分享!
回复

使用道具 举报

7#
jl0924手机认证 发表于 7 天前 来自手机 | 只看该作者
谢谢楼主分享
回复 支持 反对

使用道具 举报

8#
逆风行舟手机认证 发表于 前天 20:53 | 只看该作者
终于看到高清的了
回复 支持 反对

使用道具 举报

9#
逆风行舟手机认证 发表于 昨天 20:00 | 只看该作者
好啊好啊好啊哦3 a& L& [7 B; m! X9 M' z( y" h
回复 支持 反对

使用道具 举报

您需要登录后才可以回帖 登录 | 立即注册

本版积分规则

烧友之家(蓝光高清网)本站内容部分由用户自主分享和转载自互联网,转载目的在于传递更多信息,并不代表本网赞同其观点和对其真实性负责。 如有侵权、违反国家法律政策行为,请联系我们,我们会第一时间及时清除和处理!
蓝光高清网 综合资讯平台
关注我们
  • 官方微信公众号
  • 扫码下载官方APP

X3.4 Licensed© 2001-2013 蓝光高清网 烧友之家APP |网站地图