游客您好
第三方账号登陆
  • 点击联系客服

    在线时间:9:00-18:00

    客服QQ

    1371333023

    电子邮件

    lanniao@1080pro.net
  • 烧友之家APP

    随时掌握烧友资讯

  • 扫描二维码

    关注微信公众号

推荐阅读
蓝鸟
未知星球 | 未知职业
  • 关注0
  • 粉丝2
  • 帖子93845
精选帖子
开启左侧

WeWork 4K.2021.2160p.HULU.WEBRip.x265.10bit.SDR.DDP5.1-4k电影下载—9.36 GB

[复制链接]
蓝鸟 发表于 2021-4-7 10:10:18 | 显示全部楼层 |阅读模式 打印 上一主题 下一主题
WeWork
上映时间:2021年
类型:记录 
地区:美国 
导演:杰德·罗斯坦
主演:杰德·罗斯坦
画质标准:4K SDR  封装音轨:Dolby TrueHD 5.1 Dolby Atmos 
豆瓣评分:6.6分

加入蓝光高清网,轻松下载最新4k资源

您需要 登录 才可以下载或查看,没有帐号?立即注册

x
简        介- M3 B3 _; X) U% F& ?3 U% l

- L$ y" A1 u& \4 @- a9 s       An account of the six-week death spiral that brought down the company's IPO, a behind-the-scenes look at WeWork's frat-boy culture.
. u. }1 V( b% |6 X
- E9 O( K3 s1 Q. _( z6 i

2 P! H. {! c% U影片参数
( i: X% l' t7 d4 w) z
WeWork: or the Making and Breaking of a $47 Billion Unicorn/WeWork 4K.2021.2160p.HULU.WEBRip.x265.10bit.SDR.DDP5.1-4k电影信息; t$ Y5 }9 t( u: K- w6 O4 F( q: u
Video! {) r6 R* b/ l6 K% P+ e! t# n
ID : 1
- i  \8 a; s1 l; G8 `/ z/ p% CFormat : HEVC
) S1 i1 }' o$ `Format/Info : High Efficiency Video Coding
' g. |) h! s1 v0 v' P( `9 JFormat profile : Main 10@L5.1@Main( t0 b4 q+ V* ]5 z$ j* Z  w
Codec ID : V_MPEGH/ISO/HEVC
: l% F" K' r2 NDuration : 1 h 41 min$ E) j  f: o% I& \' q6 t2 m' P
Bit rate : 12.9 Mb/s
0 s! u; m! A. B- \Width : 3 840 pixels- B9 }- I, e/ I3 x
Height : 2 160 pixels
* ?( Q; g2 G  G, {4 ^1 ADisplay aspect ratio : 16:9
" o) K- G# G/ x8 U, j$ ?Frame rate mode : Constant
  u& _- U+ c' FFrame rate : 23.976 (24000/1001) FPS* q' T$ i/ F; ^+ w$ @! m
Color space : YUV: x) K7 E9 K! O" l
Chroma subsampling : 4:2:0
$ g* ], \) G; PBit depth : 10 bits0 N3 K; l5 c8 {( u* E4 @5 C
Bits/(Pixel*Frame) : 0.065
. K4 m# _9 q) j: {# V" {Stream size : 9.17 GiB (98%)
& e4 _4 W6 P9 @! T7 Z& J9 g2 q- @. BLanguage : English
* m/ p, h0 [) N$ |Default : Yes
1 b! L( E) k& R5 o( kForced : No
# \5 F; |! l+ k0 C" a- c  _8 b" o9 X! p6 c# s" T- Z* q

% ^2 O' ]0 r: o; S" tAudio( l/ l- C4 t3 N+ m
ID : 2- t; j5 n3 V8 R2 T7 t8 J
Format : E-AC-3
: Q5 C( I* w- _9 ZFormat/Info : Enhanced AC-3
$ \: v, z  F2 y. Q# q4 wCommercial name : Dolby Digital Plus
) ?2 A! M) k6 E% R' K+ ^Codec ID : A_EAC3" u6 H. p4 {% l7 K- V7 a7 U/ p/ |) H
Duration : 1 h 41 min
$ U; u9 \! {$ M' C- S# ~Bit rate mode : Constant& I8 U0 c9 \/ ]+ y( }
Bit rate : 256 kb/s
( \1 _- m& H# _& v5 qChannel(s) : 6 channels; O. F3 H$ E9 r2 w  p
Channel layout : L R C LFE Ls Rs; f/ a2 ?% E( D/ `9 W# k: v: t
Sampling rate : 48.0 kHz
4 w1 |2 t+ f4 @0 c; \! A7 ]" w* m' ?Frame rate : 31.250 FPS (1536 SPF)! O0 E+ z/ Z) o) t4 i7 Z
Compression mode : Lossy
- S! y& ~9 |% U/ j$ M5 n, S) TStream size : 186 MiB (2%)5 H- v" z; @: C
Language : English
# \9 h6 t* J: t. p' jService kind : Complete Main7 x1 i$ ?/ W6 |+ D6 e5 l
Default : Yes! Z, ~! F6 W# K6 J( c
Forced : No
, k* s) ?/ i. W2 e6 F0 q  G0 B, w/ y9 ?8 E; N+ w7 C

6 X# X9 y/ a+ n8 _3 r% X  `Text #11 |( U: G# |  V# _
ID : 3
, e1 r$ G0 \# a5 C6 S' QFormat : UTF-82 _: f' s" h4 O! r
Codec ID : S_TEXT/UTF8
; ?4 I4 B  b: {/ ?# \! uCodec ID/Info : UTF-8 Plain Text
& Z- A: ]  L7 d2 w0 u9 QDuration : 1 h 39 min8 Y1 V. s6 Y+ v9 F  J7 |' `7 H
Bit rate : 129 b/s: J# H8 i4 Q8 B
Count of elements : 1945
& S! U3 x- ?, KStream size : 94.3 KiB (0%)1 o! Q5 M" H8 d! j6 w
Title : English+ l2 B4 O) b# Z+ ~7 u
Language : English* U7 V9 `% A) a2 r/ T1 K* l: B
Default : No* ]) N! {! _) `0 w/ D* W# O! L
Forced : No
, j7 c/ U5 S  G" o! {( ^
' P# F/ }# [4 h+ I

7 y8 _# C) y0 n  c2 W# cText #2
0 J" N& _* D4 N# Q9 l% BID : 4
. Q1 B, q4 |6 b9 e1 a: `Format : UTF-8
. [* z$ j* e& g; zCodec ID : S_TEXT/UTF8
6 I  `$ L# i  {Codec ID/Info : UTF-8 Plain Text
/ V& _& s+ T* ]7 v* I; H* I( \Duration : 1 h 39 min
. l( s# p0 l- s+ [& PBit rate : 134 b/s
! {; x* C& v! O/ W; MCount of elements : 2000' m4 C4 a# R" X! |2 V
Stream size : 98.4 KiB (0%)4 V, N" Y$ `! L( Q3 J+ D1 b, q/ V" p- A/ O
Title : Spanish; Castilian4 l% B3 Z' w: e5 j) [- E
Language : Spanish
& ]" n: i9 }! ]' v4 }* ^Default : No2 x' {7 e8 L( S+ S& K/ b9 v
Forced : No
( {. ^8 [7 `* {2 y7 N8 r% Y$ r) Q2 I
8 ^3 v+ _3 j1 c" [& ~
蓝光高清网提示您  点击下方附件名即可开始下载) }' N( y5 C2 O) H7 R0 D

0 N9 p" b  e. w, n9 M9 H6 r

$ B( u+ \6 S* L8 ]" [6 c+ yWeWork: or the Making and Breaking of a $47 Billion Unicorn/WeWork 4K.2021.2160p.HULU.WEBRip.x265.10bit.SDR.DDP5.1-4K电影下载
# ], S. e; O+ s( D) R( |! C: Y; [! k- B' C: U. B( Y
WeWork 4K.2021.2160p.HULU.WEBRip.x265.10bit.SDR.DDP5.1【4K SDR 9.36 GB】( X. \, ~1 Q$ {1 P4 W
* n8 X; D9 h6 b8 L+ [! ]+ n2 H) \
WeWork.2021.2160p.HULU.WEBRip.x265.10bit.SDR.DDP5.1-KOGi.torrent (文件大小:47.47 KB)
加入蓝光高清网VIP会员  无限制下载本站所有资源---点这里

资源下载、资源播放、字幕使用、无法下载等常见问题---点这里
回复

使用道具 举报

您需要登录后才可以回帖 登录 | 立即注册

本版积分规则

烧友之家(蓝光高清网)本站内容部分由用户自主分享和转载自互联网,转载目的在于传递更多信息,并不代表本网赞同其观点和对其真实性负责。 如有侵权、违反国家法律政策行为,请联系我们,我们会第一时间及时清除和处理!
蓝光高清网 综合资讯平台
关注我们
  • 官方微信公众号
  • 扫码下载官方APP

X3.4 Licensed© 2001-2013 蓝光高清网 烧友之家APP |网站地图