游客您好
第三方账号登陆
  • 点击联系客服

    在线时间:9:00-18:00

    客服QQ

    1371333023

    电子邮件

    lanniao@1080pro.net
  • 烧友之家APP

    随时掌握烧友资讯

  • 扫描二维码

    关注微信公众号

推荐阅读
蓝鸟
未知星球 | 未知职业
  • 关注0
  • 粉丝2
  • 帖子93936
精选帖子
开启左侧

忌日快乐2 4K.Happy.Death.Day.2U.2019.2160p.AMZN.WEB-DL-电影下载—13.45GB

[复制链接]
蓝鸟 发表于 2021-4-15 10:12:59 | 显示全部楼层 |阅读模式 打印 上一主题 下一主题
忌日快乐2
上映时间:2019年
类型:惊悚 恐怖 悬疑 
地区:美国 
导演:克里斯托弗·兰登
主演:杰西卡·罗德 / 伊瑟尔·布罗萨德 / 露比·莫迪恩 / 苏拉·沙玛 / 史蒂夫·齐西斯 / 瑞秋·马休斯 / 查尔斯·艾特肯 / 莎拉·亚金 / 凯莱布·斯比尔亚兹 / 吉吉·埃内塔 / 劳拉·克利夫顿 / 温迪·米克洛维奇 / 凯勒布·拿奎恩 / 肯尼斯·以色列 / 泰内娅·因崔亚戈 / 布莱恩·克恩 / 川川 / 卡瑞尔拉·史密斯 / 罗布·梅洛 / 林赛·G·史密斯 / 飞·武 / 莎拉·贝纳尼 / 杰奎琳·哈里斯·马瑟恩 / 西尔维娅·格雷丝·克里姆 / 拉姆齐·安德森
画质标准:4K  封装音轨:LPCM 
豆瓣评分:6.6分

加入蓝光高清网,轻松下载最新4k资源

您需要 登录 才可以下载或查看,没有帐号?立即注册

x
简       介
/ L+ P3 P4 s; J! q  停靠在路边的汽车内,黄毛小子瑞恩(飞·武 Phi Vu 饰)被其他汽车的喇叭惊醒,他昏头昏脑走下来,一路晃进校园,进了实验室。由于正在研究的装置耗能巨大,学院院长气急败坏责令瑞恩停掉在研项目。糟糕的事不止于此,事后不久他就被一个带着面具的家伙给杀掉了。然而,他再度醒来, 发现自己还躺在车里,而接下来发生的一切都和“梦境”中的一样。瑞恩惶恐不安,找到了好基友卡特·戴维斯(伊瑟尔·布罗萨德 Israel Broussard 饰)及其女友泰莉·格尔布曼(杰西卡·罗德 Jessica Rothe 饰)。; D4 b3 I$ ?; f& w" h( |7 G
  这种生死轮回对于泰莉再熟悉不过了,她首先跟瑞恩讲述自己的经历,随后告诉他想终止轮回的方法只有找到凶手。而接下来,他们不仅发现瑞恩那台装置似乎是造成轮回的一个成因,而且泰莉再次回到了那个早晨。。。。。。
# ^  [- [. e5 j! p# o; I. V

8 g8 @) w. N9 t6 w

7 K5 h$ c) o) `8 U' Z影片参数
& X# J2 Y* e* d) Z1 X
死亡无限2次LOOP(港) / 祝你忌日快乐(台) / Happy Death Day 2 / Happy Death Day to You/忌日快乐2 4K.Happy.Death.Day.2U.2019.2160p.AMZN.WEB-DL.x265.10bit.HDR10Plus.DTS-HD.MA.5.1-4k电影信息
  s' K0 R* W  H0 ?Video
2 g/ w, f0 r' O9 T# cID : 18 s' W' j& R4 H) @5 i3 a$ B6 D
Format : HEVC
" J) C& y- [( SFormat/Info : High Efficiency Video Coding# R! {1 Y+ J) k: k( ]
Format profile : Main 10@L5@Main
5 ~9 p% V4 b. ?" G$ JHDR format : SMPTE ST 2094 App 4, Version 1, HDR10+ Profile B compatible, g9 V" y, P, ]. R
Codec ID : V_MPEGH/ISO/HEVC
" _; B; b; ^$ ~, TDuration : 1 h 39 min
% y. y! f: O: P  _0 ZBit rate : 14.8 Mb/s
+ x/ E2 e; _. x7 iWidth : 3 840 pixels
9 b" R! B0 |( [6 S5 O( @Height : 1 600 pixels1 I3 |4 E( `+ ]" c
Display aspect ratio : 2.40:1
7 y% \% \4 v3 o1 F) WFrame rate mode : Constant. f/ s: t. p- g9 j
Frame rate : 23.976 (24000/1001) FPS4 S9 y6 T& ^3 K4 m
Color space : YUV$ v* V% {3 k( N8 u0 O5 ~& K7 V
Chroma subsampling : 4:2:0/ l5 `- T/ \/ M2 I6 D0 v1 X4 R
Bit depth : 10 bits3 ^; J# h* \- O/ L" K
Bits/(Pixel*Frame) : 0.101
9 ~2 k, P( |" W& R# f) OStream size : 10.4 GiB (77%)' a+ E( H5 L0 R' F' ]' Q
Language : English
6 u5 I' j7 N" F! T  }/ @. LDefault : Yes
- ?: `+ V1 m: v; D% `6 E& vForced : No: g& q0 Q* s7 r) O
Color range : Limited# ~" A& \, q2 q# y4 }
Color primaries : BT.2020
( C) b) D4 C6 s4 C2 dTransfer characteristics : PQ0 m6 O# w; V; }+ G2 k# L( @+ `* N4 i
Matrix coefficients : BT.2020 non-constant0 M5 K( K5 e4 u8 D! u
Mastering display color primaries : Display P3
! [8 z, m2 C/ f0 W, i' JMastering display luminance : min: 0.0050 cd/m2, max: 1000 cd/m2& g! q7 a7 B/ T1 B2 j# }9 z
Maximum Content Light Level : 962 cd/m2# C# s5 K8 n- n0 q& B
Maximum Frame-Average Light Level : 491 cd/m2
' i1 F1 w; L% h* S/ K  \- o
5 [: b. e/ B% ?# A
8 J7 N" f' C$ _) C
Audio #1
  z! _, Y" m4 t5 @' g0 h/ s! P5 uID : 2( f5 i0 u( L- r8 p, b
Format : DTS XLL
  K; J" h! e* }0 [4 {7 AFormat/Info : Digital Theater Systems
2 L0 A& \# V6 h! [/ H* jCommercial name : DTS-HD Master Audio6 ^  h+ y( Z$ |" f
Codec ID : A_DTS8 V1 M' z. Y, x/ P: T
Duration : 1 h 39 min. K6 Z1 @4 _" F' M, X8 a5 L' D- b
Bit rate mode : Variable
" l+ D( k  q" P* t/ IBit rate : 3 778 kb/s
4 @8 w. E: t. l: BChannel(s) : 6 channels# C; H4 t, C2 w( d
Channel layout : C L R Ls Rs LFE$ T+ h. `# v' L% U! {
Sampling rate : 48.0 kHz$ O$ N9 I8 P: H6 `7 ~
Frame rate : 93.750 FPS (512 SPF)
* x( J( {) p" r. j( s" fBit depth : 24 bits
8 v2 k% @; U+ R. n. a/ D, m3 aCompression mode : Lossless
8 _. p9 e3 q% r# p5 fDelay relative to video : 1 s 0 ms
* m5 k) u; b& n( ~; S. aStream size : 2.64 GiB (20%)! H# v* c, }1 y
Title : DTS-HD MA 5.13 ]+ Z+ K3 C; q1 u
Language : English
* L$ X4 Y8 U: ^# B1 i8 bDefault : Yes
9 ~5 ?" w% z% Y; _9 uForced : No- ~: {1 M" G* j( S: M: s) X

& g- w" e% G5 N7 p+ Z
0 r6 a; \* Z( S! A! J  u) q8 X
Audio #2% Z" r4 \, n8 x1 g1 Q
ID : 3
: D1 O) s, N5 ^, Q  [Format : E-AC-3( @* c7 C1 @7 V1 U
Format/Info : Enhanced AC-3
" s1 j9 Q/ e0 |Commercial name : Dolby Digital Plus# y' O+ ]: x( \$ y
Codec ID : A_EAC3
3 T. t) M8 T" E; x: d2 H; H, fDuration : 1 h 39 min
% T0 y6 d$ f+ G) {Bit rate mode : Constant2 }8 I2 {, C  S9 f3 b
Bit rate : 640 kb/s( _8 `" |, x6 f6 y  Q2 f; A
Channel(s) : 6 channels# _  U7 y' _2 _( p/ n7 |9 ^
Channel layout : L R C LFE Ls Rs
% U. \( l$ e- a4 I: nSampling rate : 48.0 kHz, _* P+ |* B* f' @$ }
Frame rate : 31.250 FPS (1536 SPF)/ D3 S3 p5 ?, p4 z2 x
Compression mode : Lossy" T  B" Y7 n1 J
Stream size : 458 MiB (3%)
5 j# H' L- ]7 oTitle : DDP 5.1
4 u4 a  K3 {" x4 Q: Y0 ]Language : English
  }$ Y4 r' z7 ]Service kind : Complete Main+ T- Z' Q3 B" p
Default : No( F) i$ |& `! a6 s6 h
Forced : No* |" `$ v2 K' I5 M: A
$ h% \$ g5 y7 O% d: b" R/ e' U! S
- Y/ y: x* M8 {

9 r& L2 `  y) l, V/ b/ x+ L/ S4 w, U9 e
; J( i  y% O0 Q
死亡无限2次LOOP(港) / 祝你忌日快乐(台) / Happy Death Day 2 / Happy Death Day to You/忌日快乐2 4K.Happy.Death.Day.2U.2019.2160p.AMZN.WEB-DL.x265.10bit.HDR10Plus.DTS-HD.MA.5.1-4K电影下载$ e! D0 W; y6 D$ s4 g7 P$ M/ k# J
死亡无限2次LOOP(港) / 祝你忌日快乐(台) / Happy Death Day 2 / Happy Death Day to You/忌日快乐2 4K.Happy.Death.Day.2U.2019.2160p.AMZN.WEB-DL.x265.10bit.HDR10Plus.DTS-HD.MA.5.1-4k电影信息0 ]5 m8 f* R6 B4 a; `7 I4 _$ v% ^
Video
; s$ P* I4 D% R8 M% U7 Y4 AID : 1
# p; H0 L6 Z4 Z* uFormat : HEVC
  q' O6 u) O" W: j" y) QFormat/Info : High Efficiency Video Coding
, E+ s5 R6 I3 r0 GFormat profile : Main 10@L5@Main- Z7 k' z: `3 l% P3 L
HDR format : SMPTE ST 2094 App 4, Version 1, HDR10+ Profile B compatible
1 k$ }! j. s; ]: jCodec ID : V_MPEGH/ISO/HEVC
" @8 I5 q/ }- o# F  u! w/ B* _' VDuration : 1 h 39 min
8 K6 b9 d7 M' jBit rate : 14.8 Mb/s) a$ S& A; v# |1 \) c" G
Width : 3 840 pixels  i% s7 Q$ R" j4 V3 h0 s
Height : 1 600 pixels
. ]( W8 E8 i2 eDisplay aspect ratio : 2.40:1/ G) t+ g* e) U
Frame rate mode : Constant6 z/ Q6 q% }8 b
Frame rate : 23.976 (24000/1001) FPS
$ F. L3 @( g6 G( N8 b3 h$ \6 q$ }Color space : YUV
  s) t" I/ x6 l; L% B1 C! t# K" zChroma subsampling : 4:2:0
2 z$ N4 J. F/ B1 g9 a3 f9 jBit depth : 10 bits
, n" L0 S6 J5 u! Q1 uBits/(Pixel*Frame) : 0.101
) X" V+ \$ A# T8 L( |6 l1 zStream size : 10.4 GiB (77%)
" @( [, k4 K; U6 h; TLanguage : English0 ^6 c) Z1 [! V- F
Default : Yes7 x5 e* T9 X5 R. T
Forced : No* u( y8 _2 Z2 Z) v9 s
Color range : Limited
# b, m! _5 u% l; @3 S6 QColor primaries : BT.2020, }) H& W2 L, G( x* o& A% O
Transfer characteristics : PQ. e7 _3 d, q) @( C
Matrix coefficients : BT.2020 non-constant$ L! s, s, e: r3 F+ M
Mastering display color primaries : Display P3: x: }- ]0 o/ c$ y& k' y4 q) z
Mastering display luminance : min: 0.0050 cd/m2, max: 1000 cd/m2
, ]' Q7 c$ u0 s1 f# ?Maximum Content Light Level : 962 cd/m2
7 [, o, a& R, ~( }Maximum Frame-Average Light Level : 491 cd/m2
8 T6 g  k4 b5 p- U8 l% t5 }
% Z1 ~/ I6 E* s% z9 O0 t
& V. P0 i0 n0 u" J, U
Audio #1, p* `9 N' d; ~1 o! w: n8 B, O
ID : 2
# m$ i$ G: E( V, k' |7 R3 rFormat : DTS XLL  j8 B0 i5 S+ Q0 `2 ]3 {1 q
Format/Info : Digital Theater Systems# n  D1 d9 z8 x0 a9 \, z! |
Commercial name : DTS-HD Master Audio
7 {  [0 m2 r) VCodec ID : A_DTS" A" b* k; ^$ Y) x2 R
Duration : 1 h 39 min
0 U' o1 S) t; B) `# u) ]# _Bit rate mode : Variable
/ k- x0 K) L5 r9 t* QBit rate : 3 778 kb/s
7 c; X$ a2 K( G( P  FChannel(s) : 6 channels" F" N! F; O  n5 B1 g5 w
Channel layout : C L R Ls Rs LFE- p$ b5 M: Q; D; @5 J0 f
Sampling rate : 48.0 kHz& P: a! Y8 `& |
Frame rate : 93.750 FPS (512 SPF)5 t5 p: L8 N  w
Bit depth : 24 bits
" I+ i. z3 i: I4 oCompression mode : Lossless
4 [* d7 \) @/ J- T& kDelay relative to video : 1 s 0 ms4 ^0 z, k/ @4 c$ r. h% c) p- e
Stream size : 2.64 GiB (20%)
$ U$ [$ t. Y! h0 C% y' v- Y) q1 aTitle : DTS-HD MA 5.1
  l6 C7 s0 D; w- u+ M4 Z" SLanguage : English
/ I* l9 [, R+ KDefault : Yes0 @# m8 Z, L& _4 T+ e5 j; G7 r
Forced : No
- w% \- S, d# U  ]9 o8 e2 H; h8 y% l. T. z% n) w

* w! ]1 ?5 g. P; o7 u1 pAudio #2
5 I8 M  A5 o9 W* T0 C9 F4 }3 \ID : 3
( k8 s7 u3 A$ X5 W) W9 {8 ~- V& X- sFormat : E-AC-3
  U: O( q/ [) r; [5 \; h. e( LFormat/Info : Enhanced AC-3' p6 O1 @% K* ~+ p6 |  g. Q/ }
Commercial name : Dolby Digital Plus, ~: h5 l2 s# G' o( i( ?# d
Codec ID : A_EAC3
0 c9 s# d6 M( S% O2 qDuration : 1 h 39 min/ e4 O$ m( ^* ~- e' K
Bit rate mode : Constant( N& s2 z) B1 }" b* ~' M
Bit rate : 640 kb/s6 A: x" ?' ?9 g4 j2 d
Channel(s) : 6 channels
& `' n1 E4 C0 V' T% i2 oChannel layout : L R C LFE Ls Rs2 H/ r+ q* ^! Z1 ~) ^" C2 \
Sampling rate : 48.0 kHz
5 F$ F6 U0 `% }) N0 q" pFrame rate : 31.250 FPS (1536 SPF)
9 x0 z" _8 W" ACompression mode : Lossy
4 g2 _3 `) {4 i3 PStream size : 458 MiB (3%)! J- u0 l; p3 [. t
Title : DDP 5.19 W  V0 B. R) [' k9 j
Language : English
# _! Y' W6 ~4 GService kind : Complete Main
4 v2 P8 R# G% W( c5 DDefault : No* t2 n$ ~( h" \  V  p
Forced : No
. v3 b; r( ~7 X. s# U# D" y8 A
- O1 z/ h7 V" l! {( ~' ^
) O0 ^) ]9 n, t: j+ ^# Y9 B; Z
& S0 D2 J) l/ s5 Q
蓝光高清网提示你   点击下方附件名即可开始下载& B& C' ^4 J! w. G( x- T1 h$ I
& D/ h5 b1 T% {0 X+ \( e

- [2 M1 i/ W: Y死亡无限2次LOOP(港) / 祝你忌日快乐(台) / Happy Death Day 2 / Happy Death Day to You/忌日快乐2 4K.Happy.Death.Day.2U.2019.2160p.AMZN.WEB-DL.x265.10bit.HDR10Plus.DTS-HD.MA.5.1-4K电影下载、9 W& j& N3 N$ e+ i, E6 i% v  v

6 d* Y/ M) C% }! L- _' B1 M

* O( P7 c+ w& G' q
忌日快乐2 4K.Happy.Death.Day.2U.2019.2160p.AMZN.WEB-DL.x265.10bit.HDR10Plus.DTS-HD.MA.5.1【4K HDR 13.45 GB】9 Y2 g/ I! m& l+ O- n4 H
忌日快乐2 4K.Happy.Death.Day.2U.2019.2160p.AMZN.WEB-DL.x265.10bit.HDR10Pl.torrent (文件大小:67.95 KB)
加入蓝光高清网VIP会员  无限制下载本站所有资源---点这里

资源下载、资源播放、字幕使用、无法下载等常见问题---点这里
回复

使用道具 举报

精彩评论1

小山雀 发表于 2021-4-15 11:43:32 | 显示全部楼层
感谢分享
回复

使用道具 举报

您需要登录后才可以回帖 登录 | 立即注册

本版积分规则

烧友之家(蓝光高清网)本站内容部分由用户自主分享和转载自互联网,转载目的在于传递更多信息,并不代表本网赞同其观点和对其真实性负责。 如有侵权、违反国家法律政策行为,请联系我们,我们会第一时间及时清除和处理!
蓝光高清网 综合资讯平台
关注我们
  • 官方微信公众号
  • 扫码下载官方APP

X3.4 Licensed© 2001-2013 蓝光高清网 烧友之家APP |网站地图