游客您好
第三方账号登陆
  • 点击联系客服

    在线时间:9:00-18:00

    客服QQ

    1371333023

    电子邮件

    lanniao@1080pro.net
  • 烧友之家APP

    随时掌握烧友资讯

  • 扫描二维码

    关注微信公众号

推荐阅读
蓝鸟
未知星球 | 未知职业
  • 关注0
  • 粉丝2
  • 帖子93936
精选帖子
开启左侧

忌日快乐4k Happy.Death.Day.2017.2160p.WEBRip-电影下载—20.61GB

[复制链接]
蓝鸟 发表于 2021-4-15 10:38:57 | 显示全部楼层 |阅读模式 打印 上一主题 下一主题
忌日快乐
上映时间:2017年
类型:惊悚 恐怖 悬疑 
地区:美国 
导演:克里斯托弗·兰登
主演:杰西卡·罗德 / 伊瑟尔·布罗萨德 / 露比·莫迪恩 / 查尔斯·艾特肯 / 劳拉·克利夫顿 / 杰森·拜尔 / 罗布·梅洛 / 瑞秋·马休斯 / 拉姆齐·安德森 / 布雷迪·刘易斯 / 飞·武 / 泰内娅·因崔亚戈 / 布莱恩·克恩 / 卡瑞尔拉·史密斯 / 吉米·冈萨雷斯 / 比利·斯洛特 / 唐娜·杜普兰提尔 / 吉吉·埃内塔 / 林赛·G·史密斯 / 戴恩·罗兹 / 凯莱布·斯比尔亚兹 / 蜜西·雅格
画质标准:4K HDR  封装音轨:DTS-HD.MA 5.1 
豆瓣评分:7.1分

加入蓝光高清网,轻松下载最新4k资源

您需要 登录 才可以下载或查看,没有帐号?立即注册

x
简       介' E3 [% w+ y1 a  d5 [
  9月18日星期一,是放纵张扬的高校女孩泰莉·格尔布曼(杰西卡·罗德 Jessica Rothe 饰)的生日,同时也是她亡母的生日。前一晚她烂醉如泥,睡在了有一面之缘的男生卡特的房间。她醒来后回到宿舍,匆匆赶去上课。夜幕降临,姐妹们为她准备了惊喜的生日派对。谁知在赶赴派对的途中,泰 莉遭到蒙面男的杀害。吊诡的是,当她再度醒来时,发现自己又回到了9月18日的早上,十数个小时前经历的一切又不得不重新经历一遍,其中包括被杀的遭遇。就这样,抓狂的泰莉不断尝试改变命运,又一次次被神秘男人所杀害。' t, T4 |, m$ B+ F% }0 c% y
  她仿佛落入了永世轮回的诅咒之中,无法超生……
1 o8 P+ U8 K9 {9 S) c# e

& ~5 k: a: p; H4 b5 r影片参数. r; s+ x3 D; Q
死日快乐 / 吓到半死 / 死亡无限LOOP(港) / 忌日快乐4k Happy.Death.Day.2017.2160p.WEBRip.x265.10bit.HDR.DTS-HD.MA.5.1 4k电影信息
: K3 P9 f3 c3 T. `  |: w' RVideo
+ o. [, G6 V2 Z5 qID : 1
) ^4 L+ ~2 e: B0 v5 Z7 C* [Format : HEVC
' e" Y* C' \9 Q- U  XFormat/Info : High Efficiency Video Coding5 S; w7 c9 P8 x/ Y9 o
Format profile : Main 10@L5@Main2 ?: p8 l# O# W0 ?) l0 a: }( z
HDR format : SMPTE ST 2086, HDR10 compatible4 S1 J5 P* m& V2 ~( C/ ~1 {# c* h
Codec ID : V_MPEGH/ISO/HEVC
; ^/ V2 m' y$ O% N8 q) j9 i. KDuration : 1 h 36 min
$ w+ `( F/ [$ W% a1 A; a2 b2 E3 U1 jBit rate : 23.7 Mb/s
- ?* m% f, W6 |9 h- |# FWidth : 3 840 pixels. N; f7 Z1 m4 |6 c6 I
Height : 1 608 pixels2 N( O4 @8 i- O
Display aspect ratio : 2.40:1
4 j% M5 ?2 z* zFrame rate mode : Constant! y" ^1 D1 R% L/ }6 B; G' b. F
Frame rate : 23.976 (24000/1001) FPS
: O5 k4 h6 m# C' Y2 bColor space : YUV
2 {) s4 ?8 l. k/ fChroma subsampling : 4:2:0) g, F. h' y* w6 A3 K8 r
Bit depth : 10 bits# X' q3 N; v1 e1 n$ a
Bits/(Pixel*Frame) : 0.1608 V/ {" M" B) D" w2 y: s( n
Stream size : 15.9 GiB (77%); X3 c" d' g- b0 P7 q
Default : Yes
; F2 l2 ~! e' a' aForced : No
1 ~- p9 w0 b4 `/ Q% KColor range : Limited
! N0 G/ e+ t' s9 QColor primaries : BT.2020) U5 B# w7 X( k( g# |, \
Transfer characteristics : PQ
" H- t/ E' ?9 S4 }2 {0 ]$ UMatrix coefficients : BT.2020 non-constant  i/ F3 t, F' r: V+ |& z
Mastering display color primaries : Display P3" p7 B9 M3 q4 j/ \0 b9 \! @+ [! h
Mastering display luminance : min: 0.0050 cd/m2, max: 1000 cd/m2
% }3 y; h: B* u2 R' ZMaximum Content Light Level : 464 cd/m2
8 h8 R2 X$ h& I1 ^Maximum Frame-Average Light Level : 161 cd/m22 G) C5 ^' w/ D% d. w

; Q- S- Y. r5 H3 E  F

; D9 @- i, Z+ z" I( `! OAudio #1
1 e! j8 j7 [5 Q2 f( ^2 UID : 26 M" ~. d( k$ E6 G5 C: R
Format : DTS XLL
7 P& \* O# ^# {1 kFormat/Info : Digital Theater Systems4 [( ]3 {6 X# e. ?- K9 G
Commercial name : DTS-HD Master Audio: Q9 Q& y3 [  l* b# ]  x
Codec ID : A_DTS+ ~: v' L3 _# D3 g+ f
Duration : 1 h 36 min" ^  l# H3 s4 ^  ], B* U
Bit rate mode : Variable
. s6 u  u+ W6 A: ]! o! Q: MBit rate : 3 886 kb/s
" ~0 Z" P5 G$ k7 X$ v" MChannel(s) : 6 channels# q1 t  l! k: T  i! u) K7 f% z- [
Channel layout : C L R Ls Rs LFE
$ A: b& P' @- e) ?6 J& }# USampling rate : 48.0 kHz) a* K5 Z( R8 H8 n
Frame rate : 93.750 FPS (512 SPF)
- P% M( N6 @5 M4 ], RBit depth : 24 bits
4 s2 f9 Z, ~/ E) f; FCompression mode : Lossless
' Y$ j. Q& K& X, Y( IDelay relative to video : 1 s 91 ms0 W: u4 q/ r% I) z
Stream size : 2.61 GiB (13%)1 e6 H9 j3 n/ Z# W
Language : English2 ^' s4 A% i& N
Default : Yes
# [$ S/ N6 |% ~7 ~3 yForced : No" @, \5 t4 R, P

' |$ A! r1 v* X
& X& W9 m. |+ M6 Z
Audio #2( I& ]  {4 T" `- G2 o% K! N( N
ID : 3
' H! O. r, ^" tFormat : DTS
/ p8 g! n0 q0 QFormat/Info : Digital Theater Systems
4 S" p6 G( K1 E) k: n- uCodec ID : A_DTS
  O+ N1 Q: \" @% R3 m" PDuration : 1 h 36 min* _& U3 o# L; D' Y  E+ Y5 z
Bit rate mode : Constant9 V2 C& @" [% x9 \
Bit rate : 1 509 kb/s8 e: b+ T+ j2 C- C+ l9 o' K
Channel(s) : 6 channels: T8 g+ u. x- s( M
Channel layout : C L R Ls Rs LFE
3 Q- |3 D/ s7 i- o2 e. A( aSampling rate : 48.0 kHz
5 |& ?4 B& u) z. nFrame rate : 93.750 FPS (512 SPF)
" A2 ^. Z/ I( h, \& c% M0 I) QBit depth : 24 bits
/ w; z! d& ~6 ]. t1 M9 q; z, J: WCompression mode : Lossy- m4 _9 ]. Z5 F8 Y6 P
Delay relative to video : 1 s 91 ms; p7 N. t7 B1 K3 ^* }7 u* u
Stream size : 1.01 GiB (5%); l# `" f7 B2 P0 L+ s
Language : English* [/ h7 G5 K5 k1 Z( e/ c
Default : No/ d( H4 Z8 i$ r; v( ?
Forced : No" T$ y( i7 Q% n: b
; @  p; P" ]+ h3 A6 ?7 B
* M5 |4 L  V9 g$ H2 C( [+ m
Audio #3  j9 l8 D* x5 c  W  m; A
ID : 4
. w# @) g' l, k, cFormat : DTS
. `& N9 h4 I: Q) }9 }Format/Info : Digital Theater Systems
9 m2 K4 N; f; @1 }( D6 K! fCodec ID : A_DTS* f( B' x* T3 C; A
Duration : 1 h 36 min6 @2 U: @! |, g, U- |0 o
Bit rate mode : Constant# L! o& r; V/ _8 g0 `: g  F5 U4 Q
Bit rate : 768 kb/s1 ~, M; \9 [8 o/ m8 y
Channel(s) : 6 channels# Z! R0 u. J& H
Channel layout : C L R Ls Rs LFE, s* w. ^. V$ a( ~+ ^
Sampling rate : 48.0 kHz; _, B* N) E. ^, H- i: {* s
Frame rate : 93.750 FPS (512 SPF)# v$ I9 u2 g. Y3 ^9 }9 ^9 G% g
Bit depth : 24 bits
. X" B& g5 `8 |Compression mode : Lossy6 p) N: Q- P5 a# x" I. R
Delay relative to video : 1 s 91 ms
4 s' T( Z; u, e1 m6 ?Stream size : 528 MiB (3%)
2 A4 U/ d  @, z, ?3 }Language : French
/ X  p* A) B* v% S" m+ l; J; D8 _Default : No
. F0 Y: Y# c3 z- H5 s  J5 ^Forced : No
3 o. L! F) X( }# i* @% d/ h& r: G. K7 V/ M/ ^: }

9 O3 A% X( O3 I+ P4 aAudio #4
8 ?! [- g( S: |! K. W; x9 f, T; H! fID : 5
4 \3 u) |3 g3 h8 h2 I0 ~Format : DTS) j$ w% g) |, V1 E
Format/Info : Digital Theater Systems
0 a/ l- Y6 M5 o) D- j- U% d- x7 XCodec ID : A_DTS
; L! n3 v5 _& q" B9 q' V- eDuration : 1 h 36 min8 o5 S! x4 y+ i7 \; u+ Q1 ~9 \* U" w* g
Bit rate mode : Constant. X" s4 K! `0 d" `! D: E7 F& D; P2 k$ U
Bit rate : 768 kb/s9 h! I- P7 I# c* R. S
Channel(s) : 6 channels# S- [! W4 U- J- z
Channel layout : C L R Ls Rs LFE% G/ `, @, ~9 I7 ?& U
Sampling rate : 48.0 kHz
+ p. u8 ^9 P  E* j, ]  Y- jFrame rate : 93.750 FPS (512 SPF)
6 q# k( W- Q, f" L/ I* lBit depth : 24 bits
1 k( c8 D, Z: R7 w1 M2 V) hCompression mode : Lossy
& a5 O4 n+ z9 ~/ Y! Q- m" BDelay relative to video : 1 s 91 ms8 O+ a9 _0 R3 T6 g; I
Stream size : 528 MiB (3%)  f9 F" F/ |1 |2 P9 H- ]* v
Language : Spanish1 T% [1 M+ q/ z" Y% K
Default : No
# z. k3 ]4 o/ L, S# x5 e) DForced : No
0 w& O: j' {5 _/ `
蓝光高清网提示您  点击下方附件名即可开始下载$ ~. Y  A& l4 }0 n- _3 u

- u! `- f: e$ k0 z: U死日快乐 / 吓到半死 / 死亡无限LOOP(港) / 忌日快乐4k Happy.Death.Day.2017.2160p.WEBRip.x265.10bit.HDR.DTS-HD.MA.5.1 4k电影下载
$ M* P( c- [! o6 c* y9 v, F0 t# y7 v/ V7 G
忌日快乐4k Happy.Death.Day.2017.2160p.WEBRip.x265.10bit.HDR.DTS-HD.MA.5.1-GASMASK  (4K 2160p 20.61GB)) t# o+ S. r/ |7 R/ p4 z1 q5 p
忌日快乐4k_Happy.Death.Day.2017.2160p.WEBRip.x265.10bit.HDR.DTS-HD.MA.torrent (文件大小:52.11 KB)
加入蓝光高清网VIP会员  无限制下载本站所有资源---点这里

资源下载、资源播放、字幕使用、无法下载等常见问题---点这里
回复

使用道具 举报

精彩评论2

小山雀 发表于 2021-4-15 11:42:41 | 显示全部楼层
又有新电影了,感谢更新
回复 支持 反对

使用道具 举报

liyun80000手机认证 发表于 2021-4-15 13:51:04 | 显示全部楼层
谢谢分享
回复

使用道具 举报

您需要登录后才可以回帖 登录 | 立即注册

本版积分规则

烧友之家(蓝光高清网)本站内容部分由用户自主分享和转载自互联网,转载目的在于传递更多信息,并不代表本网赞同其观点和对其真实性负责。 如有侵权、违反国家法律政策行为,请联系我们,我们会第一时间及时清除和处理!
蓝光高清网 综合资讯平台
关注我们
  • 官方微信公众号
  • 扫码下载官方APP

X3.4 Licensed© 2001-2013 蓝光高清网 烧友之家APP |网站地图