游客您好
第三方账号登陆
  • 点击联系客服

    在线时间:9:00-18:00

    客服QQ

    1371333023

    电子邮件

    lanniao@1080pro.net
  • 烧友之家APP

    随时掌握烧友资讯

  • 扫描二维码

    关注微信公众号

推荐阅读
蓝鸟
未知星球 | 未知职业
  • 关注0
  • 粉丝2
  • 帖子93936
精选帖子
开启左侧

小人物 4K.Nobody.2021.2160p.AMZN.WEB-DL.x265.10bit.HDR10Plus.DDP5.1-4k电影下载—9.96 GB

[复制链接]
蓝鸟 发表于 2021-4-15 19:31:39 | 显示全部楼层 |阅读模式 打印 上一主题 下一主题
小人物
上映时间:2021年
类型:动作 犯罪 
地区:美国 
导演:伊利亚·奈舒勒
主演:鲍勃·奥登科克 / 阿列克谢·谢列布里亚科夫 / 康妮·尼尔森 / 克里斯托弗·洛伊德 / 迈克尔·艾恩塞德
画质标准:4K HDR  封装音轨:Dolby TrueHD 5.1 
豆瓣评分:7.8分

加入蓝光高清网,轻松下载最新4k资源

您需要 登录 才可以下载或查看,没有帐号?立即注册

x
简       介2 e" z, `+ ]* b: T' ~3 }
! G2 t7 K* N& n6 z- F
  一天晚上,Hutch(鲍勃·奥登科克 Bob Odenkirk 饰)位于郊区的家中遭两名小偷闯入。为了避免暴力冲突,Hutch没有为自己或是家人反击。他的儿子Blake(盖奇·芒罗 Gage Munroe 饰)对他感到很失望,他的老婆Becca(康妮·尼尔森 ConnieNielsen 饰)似乎也因此更加疏远他。这起事件激发了Hutch心中压抑许久的情绪和本能,促使他走上残酷的道路,将揭露他黑暗的秘密和致命的能力。在拳头、枪弹和急速行驶的车阵中,Hutch必须从危险的敌人(阿列克谢·谢列布里亚科夫 AlexeySerebryakov 饰)手中救出自己的家人,并确保别人不会再把他视作无名小卒。
9 I3 a) w3 e+ I, y$ X5 D
, ]1 [1 o% X8 t4 Y1 P6 e
/ T5 |/ }! d9 {  O
影片参数
1 @/ j! H- \- [
杀神NOBODY(港) / 无名弑(台) / 无名小卒/小人物4K.Nobody.2021.2160p.AMZN.WEB-DL.x265.10bit.HDR10Plus.DDP5.1-4k电影信息
; C0 ~; d5 A7 |% r! I, K' e6 _/ A7 LVideo* d: b$ f/ G* U1 J' _
ID : 1
8 V; r7 A$ P$ `; X3 n+ W9 T5 J/ ^% rFormat : HEVC
4 D2 n2 }- I, a. TFormat/Info : High Efficiency Video Coding
) P1 i' Z4 @( v8 w  BFormat profile : Main 10@L5@Main
6 z0 y' y7 c' p& e1 B6 o* @9 GHDR format : SMPTE ST 2094 App 4, Version 1, HDR10+ Profile B compatible
1 e) f% @% {0 UCodec ID : V_MPEGH/ISO/HEVC
/ z- {6 i" y; C7 oDuration : 1 h 31 min
5 h( M  U+ R2 t% i* hBit rate : 14.9 Mb/s6 ~+ Z( K: N7 a8 i! A7 w
Width : 3 840 pixels" M' \; {0 M- I9 z/ f
Height : 1 600 pixels3 F0 C: p% z: ?) I  V2 K
Display aspect ratio : 2.40:1
  z, C7 c8 z: ?. t# u6 h# y$ gFrame rate mode : Constant
" {( Y& a5 Y4 o: w! _) z$ PFrame rate : 23.976 (24000/1001) FPS# ?7 V! l( e3 J) B- }1 y5 e7 K
Color space : YUV
; h, E' z: n! O# S8 c% U# p9 _Chroma subsampling : 4:2:0
! j# T% |4 q( N- ^0 E7 S* cBit depth : 10 bits
6 c  f) v0 e+ q$ hBits/(Pixel*Frame) : 0.101
9 d+ Z  w  X, T2 V5 kStream size : 9.55 GiB (96%)3 @( w1 e4 n4 v6 l* t
Default : Yes
7 k' R$ Y0 V4 e9 [) P  H. R* ^Forced : No5 D8 q0 E2 U/ Q2 v8 B
Color range : Limited' l4 B" `8 u1 {* G9 K9 V9 R' ]
Color primaries : BT.2020
3 S- Z4 y# _7 q0 f& M( ~+ `Transfer characteristics : PQ
+ `$ k, |$ f- A& h. ^! [Matrix coefficients : BT.2020 non-constant0 V' g7 W- I4 W, R; K9 c; G! e3 v
Mastering display color primaries : Display P3) ?) s* l' s( Q$ h: |3 m: f3 d, q
Mastering display luminance : min: 0.0050 cd/m2, max: 1000 cd/m2
/ W  ?8 O  F* ]6 w. LMaximum Content Light Level : 1000 cd/m2
2 V6 T& [/ n$ kMaximum Frame-Average Light Level : 312 cd/m20 N. Q2 Q! D# F7 r" N  k
  T! L! y& b+ P1 S" P# E
( u6 G7 s- Y2 K6 O$ _4 T
Audio
' _1 E& W* y; }2 n1 Y3 `" ^  {ID : 2
9 {1 v7 i7 V: ]1 TFormat : E-AC-3
/ ^- l5 o3 ?0 T( Z/ HFormat/Info : Enhanced AC-39 d" K# N8 L/ r) b, f) ?9 S9 r
Commercial name : Dolby Digital Plus
" h, L7 G4 K( L: k/ q! mCodec ID : A_EAC3
- b( h: x  M- g# hDuration : 1 h 31 min
. `; P& c( g9 D1 DBit rate mode : Constant& g2 m9 q" g* X; `% |. ?5 f- m
Bit rate : 640 kb/s0 ?& U2 z$ Y0 P1 s- r0 m+ [/ I0 D
Channel(s) : 6 channels8 g3 v2 u+ z+ n; i
Channel layout : L R C LFE Ls Rs
- B2 Z/ h0 H! y  k( ~! z  O9 o" KSampling rate : 48.0 kHz" t, O" @* P, k; T9 ~3 P9 S+ L5 R
Frame rate : 31.250 FPS (1536 SPF)
3 E( D8 l1 I# ^0 W5 S" ^: d% T" QCompression mode : Lossy
6 T# R  @- W0 p; dStream size : 420 MiB (4%)$ Z' e  u$ i: O6 |
Language : English/ y- P* ^. C, T7 D$ k
Service kind : Complete Main
/ w5 c/ Z# P7 o  F' [- X+ G% q9 iDefault : Yes
5 Z7 l9 C* G' u; X! gForced : No
2 I# t# ?; D2 H3 T. R7 K# M4 D2 \1 ]4 J: y* R% X

: r+ B2 a/ e. hText #1& W, Q5 W% P9 F. t( k
ID : 3
' r  _+ ?# v) `; {2 p4 b0 fFormat : UTF-8
! A0 @/ {* R5 p9 B% `1 }( _. }- }( m2 I5 ~Codec ID : S_TEXT/UTF8
% f: i7 N4 B0 {2 h: p" o2 K4 \Codec ID/Info : UTF-8 Plain Text
( }! \6 n: j2 h* Z6 uDuration : 1 h 26 min* a" ^  t. v  ~- }6 z
Bit rate : 28 b/s* P: u/ @$ }; y
Count of elements : 740
+ ?, b0 @* b- nStream size : 18.1 KiB (0%)- n7 K- u( }% w
Language : English1 x2 B  Q% e5 ^( R4 z
Default : Yes
2 h$ k; d$ \: b) [$ J3 U, M- RForced : No
  \& h/ R1 @. X  a2 d; ]# m- t# R% H) _5 v+ o

, B' ?# h  K5 G  _+ D2 pText #2
% g! q5 n$ C6 [7 X0 N1 h0 m+ aID : 41 L6 U9 z% q& z
Format : UTF-8! V: _2 I" L; x  I( @* W7 O4 `
Codec ID : S_TEXT/UTF82 |' W9 I9 f6 n5 G3 u
Codec ID/Info : UTF-8 Plain Text
: d- X4 u1 N1 c& RDuration : 1 h 31 min
  |, c6 R* k1 u! z  b, o. U$ Y$ aBit rate : 48 b/s; N) |( G: ?% N8 e1 h
Count of elements : 1329
7 ?/ y3 R6 \% [% o. vStream size : 32.4 KiB (0%)
4 }5 |* ?' H0 {  C7 ~Title : SDH+ w+ c4 j9 j9 {' w
Language : English
4 A  f) b8 r8 f' A$ `1 NDefault : No# |% ^$ x' c* z% F) ^9 ]) c& Y$ \
Forced : No
0 G+ b4 `, }! Q( B& M
$ |+ X0 @6 g7 T% L2 }/ n3 `
蓝光高清网提示您  点击下方附件名即可开始下载
: c- v* `1 J$ A: T, V$ E: k3 C  ~+ T( r3 i, L

2 E' ^. r; O+ T  J. g) q杀神NOBODY(港) / 无名弑(台) / 无名小卒/小人物4K.Nobody.2021.2160p.AMZN.WEB-DL.x265.10bit.HDR10Plus.DDP5.1-4K电影下载9 T: O! K/ Q% I5 [. }3 d+ e( a, V
7 w  u% r* T8 h+ q+ m
小人物4K.Nobody.2021.2160p.AMZN.WEB-DL.x265.10bit.HDR10Plus.DDP5.1【4K HDR 9.96 GB】& e% g" a5 I% m: u0 X
小人物4K.Nobody.2021.2160p.AMZN.WEB-DL.x265.10bit.HDR10Plus.DDP5.1-SWTYBLZ.torrent (文件大小:50.47 KB)
加入蓝光高清网VIP会员  无限制下载本站所有资源---点这里

资源下载、资源播放、字幕使用、无法下载等常见问题---点这里
回复

使用道具 举报

精彩评论10

gywxxx手机认证 发表于 2021-4-16 12:46:50 | 显示全部楼层
谢谢谢谢谢谢谢谢谢谢分享鞥
回复 支持 反对

使用道具 举报

orangeson手机认证 发表于 2021-4-16 20:20:26 | 显示全部楼层
谢谢分享
回复

使用道具 举报

yuntianhao手机认证 发表于 2021-4-18 19:03:45 | 显示全部楼层
谢谢谢谢谢谢谢谢谢谢分享鞥& W; `1 J( U* H2 c3 s2 j0 _
回复 支持 反对

使用道具 举报

ggang1 发表于 2021-4-19 11:50:40 | 显示全部楼层
谢楼主分享
回复 支持 反对

使用道具 举报

nbll手机认证 发表于 2021-4-19 23:51:55 来自手机 | 显示全部楼层
谢谢谢谢分享
回复 支持 反对

使用道具 举报

SportsRockstar手机认证 发表于 2021-4-20 14:13:45 | 显示全部楼层
种子就下载不了,点击无反应。
回复 支持 反对

使用道具 举报

泰温公爵 发表于 2021-4-26 22:10:31 | 显示全部楼层
谢谢楼主分享~~~~~~~~~~~~
回复 支持 反对

使用道具 举报

ggang1 发表于 2021-4-27 13:08:08 | 显示全部楼层
谢楼主分享
回复 支持 反对

使用道具 举报

匿名  发表于 2021-5-1 14:12:36
谢谢楼主分享
回复 支持 反对

使用道具

您需要登录后才可以回帖 登录 | 立即注册

本版积分规则

烧友之家(蓝光高清网)本站内容部分由用户自主分享和转载自互联网,转载目的在于传递更多信息,并不代表本网赞同其观点和对其真实性负责。 如有侵权、违反国家法律政策行为,请联系我们,我们会第一时间及时清除和处理!
蓝光高清网 综合资讯平台
关注我们
  • 官方微信公众号
  • 扫码下载官方APP

X3.4 Licensed© 2001-2013 蓝光高清网 烧友之家APP |网站地图